<?xml version="1.0" standalone="no"?>
<!DOCTYPE svg PUBLIC "-//W3C//DTD SVG 1.1//EN" "http://www.w3.org/Graphics/SVG/1.1/DTD/svg11.dtd" >
<svg xmlns="http://www.w3.org/2000/svg">
<metadata></metadata>
<defs>
<font id="delta_jaegerbolditalic" horiz-adv-x="1193" >
<font-face units-per-em="2048" ascent="1638" descent="-410" />
<missing-glyph horiz-adv-x="555" />
<glyph horiz-adv-x="2048" />
<glyph horiz-adv-x="2048" />
<glyph unicode="&#xd;" horiz-adv-x="681" />
<glyph unicode=" "  horiz-adv-x="555" />
<glyph unicode="&#x09;" horiz-adv-x="555" />
<glyph unicode="&#xa0;" horiz-adv-x="555" />
<glyph unicode="!" horiz-adv-x="598" d="M59 176q0 86 59.5 143.5t143.5 57.5t141.5 -58.5t57.5 -142.5t-57.5 -142.5t-143.5 -58.5q-84 0 -142.5 58.5t-58.5 142.5zM182 457l219 989h402l-281 -877z" />
<glyph unicode="&#x22;" horiz-adv-x="731" d="M281 891l75 631h289l-260 -631h-104zM641 891l76 631h289l-261 -631h-104z" />
<glyph unicode="#" horiz-adv-x="1368" d="M102 352l74 285h213l55 188h-215l74 285h223l99 336h293l-101 -336h172l96 336h289l-96 -336h201l-74 -285h-209l-55 -188h215l-74 -285h-223l-105 -352h-290l104 352h-168l-104 -352h-291l100 352h-203zM680 637h170l57 188h-170z" />
<glyph unicode="$" horiz-adv-x="1210" d="M72 82l96 344q162 -109 326 -109q176 0 176 127q0 14 -3 28.5t-12.5 28t-13.5 22.5t-20.5 24.5t-20.5 19.5t-25.5 21.5t-23.5 19.5l-74 64q-76 68 -117 133t-41 164q0 176 122 292.5t323 135.5l70 248h309l-72 -261q119 -24 232 -79l-95 -342q-43 37 -69.5 56t-89 43.5 t-131.5 24.5q-57 0 -96.5 -25.5t-39.5 -78.5q0 -63 95 -152l53 -51q8 -8 43 -40.5t48 -47t41 -48.5t40 -60.5t22.5 -67.5t10.5 -84q0 -176 -131.5 -299t-315.5 -133l-74 -268h-309l74 268q-207 37 -307 82z" />
<glyph unicode="%" horiz-adv-x="2000" d="M178 807q0 117 43 245t123 222q121 141 301 141q186 0 268 -90t82 -231q0 -203 -108 -396q-125 -221 -352 -221q-184 0 -270.5 96.5t-86.5 233.5zM467 774q0 -82 72 -82q59 0 100 117q74 207 74 303q0 86 -68 86q-49 0 -88 -74q-29 -53 -59.5 -176t-30.5 -174zM532 0 l879 1399h268l-882 -1399h-265zM1214 313q0 117 43 245t123 222q121 141 301 142q186 0 268.5 -90.5t82.5 -231.5q0 -203 -109 -395q-125 -221 -352 -221q-184 0 -270.5 96t-86.5 233zM1503 281q0 -82 72 -82q59 0 100 116q74 207 74 303q0 86 -68 87q-47 0 -88 -74 q-29 -53 -59.5 -176t-30.5 -174z" />
<glyph unicode="&#x26;" horiz-adv-x="1579" d="M74 369q0 193 122.5 322.5t342.5 156.5q-59 94 -60 194q0 186 142.5 313.5t369.5 127.5q78 0 158 -19.5t160 -61.5t131 -125t51 -194q0 -129 -82 -240.5t-252 -152.5l399 -502l-315 -247l-246 315l-260 -258q-88 -25 -207 -25q-279 0 -395 183q-59 92 -59 213zM506 410 q0 -18 9 -40t30.5 -47.5t69 -42t112.5 -16.5q111 0 234 37l-230 291q-225 -49 -225 -182zM885 1092q0 -64 78 -164q84 18 125.5 72.5t41.5 101.5q0 51 -34.5 85t-85.5 34q-53 0 -89 -38t-36 -91z" />
<glyph unicode="'" horiz-adv-x="370" d="M281 891l75 631h289l-260 -631h-104z" />
<glyph unicode="(" horiz-adv-x="653" d="M121 301q0 352 149 684q78 172 205 336t250 252h319q-281 -303 -431 -656.5t-150 -713.5q0 -244 80 -498h-297q-125 256 -125 596z" />
<glyph unicode=")" horiz-adv-x="653" d="M-238 -295q281 303 431.5 656.5t150.5 713.5q0 244 -80 498h299q123 -262 123 -596q0 -352 -149 -684q-78 -172 -205 -336t-250 -252h-320z" />
<glyph unicode="*" horiz-adv-x="811" d="M236 1171l122 193l172 -107l54 201l221 -63l-51 -189l202 13l11 -228l-199 -12l76 -184l-205 -93l-80 191l-153 -131l-146 170l150 133z" />
<glyph unicode="+" horiz-adv-x="1482" d="M244 528l84 314h348l104 387h410l-105 -387h351l-84 -314h-351l-106 -397h-408l107 397h-350z" />
<glyph unicode="," horiz-adv-x="512" d="M-190 -289l317 635h360l-469 -635h-208z" />
<glyph unicode="-" horiz-adv-x="894" d="M33 403l266 273h672l-269 -273h-669z" />
<glyph unicode="." horiz-adv-x="512" d="M14 176q0 86 58.5 143.5t144.5 57.5q84 0 141.5 -58.5t57.5 -142.5t-57.5 -142.5t-143.5 -58.5q-84 0 -142.5 58.5t-58.5 142.5z" />
<glyph unicode="/" horiz-adv-x="894" d="M-100 0l909 1446h393l-913 -1446h-389z" />
<glyph unicode="0" horiz-adv-x="1280" d="M119 496q0 154 54 324.5t142 299.5q31 43 68 84t103.5 96.5t161.5 89t202 33.5q121 0 214 -37.5t146.5 -94t87 -131.5t45 -137t11.5 -124q0 -231 -107 -465q-209 -459 -635 -459q-233 0 -363 141.5t-130 379.5zM530 432q0 -141 109 -141q49 0 89 34.5t71.5 106.5t46 112 t37.5 120q55 184 55 299q0 147 -100 147q-88 0 -158 -127q-55 -98 -102.5 -270t-47.5 -281z" />
<glyph unicode="1" horiz-adv-x="1280" d="M395 0l262 973l-241 -58l90 336l690 160l-379 -1411h-422z" />
<glyph unicode="2" horiz-adv-x="1280" d="M51 0l78 287l565 483q78 66 110 109t32 90t-38 89t-120 42q-63 0 -143 -34t-124 -62.5t-120 -83.5l104 387q223 117 412 116q168 0 289 -86q162 -115 161 -315q0 -242 -272 -463l-291 -237h557l-309 -322h-891z" />
<glyph unicode="3" horiz-adv-x="1280" d="M111 88l96 354q158 -137 323 -137q68 0 125.5 36t57.5 105q0 23 -8.5 44.5t-32 49t-79.5 44t-138 16.5q-47 0 -68 -2l209 254h39q84 0 138 41t54 96q0 43 -36.5 79t-108.5 36q-111 0 -299 -133l94 360q195 92 348 92q182 0 298 -100t116 -254q0 -84 -35 -152.5 t-88 -109.5t-90 -61.5t-72 -32.5q195 -98 195 -289q0 -113 -54.5 -202t-142.5 -141t-189 -79t-206 -27q-221 0 -446 113z" />
<glyph unicode="4" horiz-adv-x="1280" d="M74 281l73 278l635 840h592l-221 -811h152l-189 -307h-49l-76 -281h-405l73 281h-585zM541 588h225l164 553z" />
<glyph unicode="5" horiz-adv-x="1280" d="M109 90l96 354q139 -133 348 -133q104 0 156.5 44t52.5 106q0 82 -77 134t-218 52q-70 0 -193 -22l330 774h811l-84 -316h-459l-73 -182q39 -6 80 -18.5t101 -43t105 -73.5t79 -117t34 -164q0 -233 -184.5 -371.5t-452.5 -138.5q-223 0 -452 115z" />
<glyph unicode="6" horiz-adv-x="1280" d="M156 471q0 199 110.5 395.5t278.5 350.5q106 96 243 182h607q-119 -47 -297 -174t-328 -307q59 18 139 18q184 0 280.5 -110.5t96.5 -272.5q0 -231 -162.5 -404.5t-435.5 -173.5q-236 0 -384 132.5t-148 363.5zM557 440q0 -68 38 -108.5t93 -40.5q80 0 131 74.5t51 160.5 q0 80 -41 114t-88 34q-80 0 -132 -72t-52 -162z" />
<glyph unicode="7" horiz-adv-x="1280" d="M127 0l692 1081h-493l84 318h1081l-895 -1399h-469z" />
<glyph unicode="8" horiz-adv-x="1280" d="M106 389q0 147 100.5 244.5t237.5 120.5q-2 2 -18 15t-25.5 22.5t-26 27t-25.5 34.5t-20.5 41t-16.5 53.5t-5 62.5q0 182 153.5 297.5t397.5 115.5q86 0 170 -19.5t165 -62.5t131 -124.5t50 -192.5q0 -27 -9 -60.5t-34.5 -85t-89.5 -96t-156 -67.5q178 -111 179 -285 q0 -78 -35 -155.5t-103.5 -146.5t-188.5 -111t-273 -42q-143 0 -252 35t-165.5 83t-90 110.5t-42 104.5t-8.5 81zM526 418q0 -57 40 -94t104 -37q78 0 125 54t47 118q0 59 -43 96t-99 37q-72 0 -123 -53t-51 -121zM690 956q0 -53 38 -85.5t91 -32.5q70 0 113 46t43 103 q0 53 -37 87t-92 34q-63 0 -109.5 -45.5t-46.5 -106.5z" />
<glyph unicode="9" horiz-adv-x="1280" d="M111 0q186 84 395 255t233 230q-55 -18 -145 -18q-170 0 -271.5 108.5t-101.5 274.5q0 227 169 400t437 173q233 0 378 -139t145 -373q0 -156 -69 -311.5t-173 -272t-200.5 -198.5t-178.5 -129h-618zM635 874q0 -76 42 -110.5t89 -34.5q80 0 132 72.5t52 159.5 q0 72 -38 110.5t-91 38.5q-80 0 -133 -73t-53 -163z" />
<glyph unicode=":" horiz-adv-x="598" d="M49 176q0 86 58.5 143.5t144.5 57.5q84 0 141.5 -58.5t57.5 -142.5t-58.5 -142.5t-142.5 -58.5t-142.5 58.5t-58.5 142.5zM221 823q0 86 58.5 143.5t144.5 57.5q84 0 140.5 -58.5t56.5 -142.5q0 -82 -57.5 -141t-141.5 -59t-142.5 58t-58.5 142z" />
<glyph unicode=";" horiz-adv-x="598" d="M-178 -289l319 635h361l-469 -635h-211zM240 823q0 86 58 143.5t144 57.5q84 0 141.5 -58.5t57.5 -142.5t-58.5 -142t-142.5 -58t-142 58t-58 142z" />
<glyph unicode="&#x3c;" horiz-adv-x="1482" d="M279 530l98 365l1069 444l-107 -401l-645 -236l514 -251l-100 -375z" />
<glyph unicode="=" horiz-adv-x="1482" d="M180 225l92 344h1076l-93 -344h-1075zM313 723l93 342h1075l-92 -342h-1076z" />
<glyph unicode="&#x3e;" horiz-adv-x="1482" d="M236 78l106 401l645 236l-514 252l100 374l830 -454l-98 -367z" />
<glyph unicode="?" horiz-adv-x="937" d="M186 176q0 86 58.5 143.5t144.5 57.5q84 0 141.5 -58.5t57.5 -142.5t-57.5 -142.5t-143.5 -58.5q-84 0 -142.5 58.5t-58.5 142.5zM244 1047l94 348q176 76 364 75q180 0 292 -94t112 -252q0 -160 -112.5 -272.5t-278.5 -136.5l-37 -135l-397 -117l122 459q2 0 28 -2 t48 -2q31 0 61.5 5t66.5 17t58.5 41t22.5 70q0 39 -35 75.5t-114 36.5q-143 0 -295 -116z" />
<glyph unicode="@" horiz-adv-x="1740" d="M150 477q0 414 286.5 697.5t706.5 283.5q297 0 466 -153.5t169 -421.5q0 -293 -170 -516.5t-394 -223.5q-195 0 -208 176l-164 -172h-45q-129 0 -200 76t-71 215q0 252 177.5 440.5t414.5 188.5q152 0 340 -74l-119 -350q-68 -203 -67 -237q0 -43 39 -44 q72 0 156.5 171.5t84.5 332.5q0 195 -117.5 300.5t-332.5 105.5q-303 0 -513 -225.5t-210 -548.5q0 -256 160.5 -405.5t437.5 -149.5q405 -1 686 247l-94 -288q-303 -158 -629 -158q-362 0 -576 198.5t-214 534.5zM791 463q0 -129 98 -129q47 0 117 51l153 473 q-41 14 -80 14q-147 0 -231 -182q-57 -125 -57 -227z" />
<glyph unicode="A" horiz-adv-x="1536" d="M-86 0l938 1446h485l109 -1446h-436l-15 233h-467l-143 -233h-471zM711 532h270l-18 424z" />
<glyph unicode="B" horiz-adv-x="1366" d="M4 0l389 1446h625q215 0 326.5 -101.5t111.5 -254.5q0 -141 -93 -236.5t-222 -120.5q78 -25 137 -97.5t59 -193.5q0 -172 -135 -307t-385 -135h-813zM530 311h80q287 0 287 181q0 59 -36 89.5t-68.5 35t-85.5 4.5h-95zM623 655l217 219q80 0 139 33t59 111 q0 112 -142 112h-3h-143z" />
<glyph unicode="C" horiz-adv-x="1409" d="M156 616q0 371 266 622t694 251q260 0 447 -68l-93 -342q-4 2 -25.5 13.5t-35.5 17.5t-41 17.5t-51.5 18.5t-55 14t-63.5 11.5t-68 4.5q-227 0 -374.5 -162t-147.5 -375q0 -180 113 -278.5t307 -98.5q162 0 416 98l-338 -368q-160 -35 -268 -35q-307 0 -494.5 179 t-187.5 480z" />
<glyph unicode="D" horiz-adv-x="1536" d="M4 0l389 1446h545q180 0 312 -48t205 -134t105.5 -187.5t32.5 -224.5q0 -111 -27.5 -224.5t-94 -227t-163 -201.5t-248 -143.5t-335.5 -55.5h-721zM539 330h120q113 0 200 39t135 94t79 128t40 128t9 104q0 129 -66.5 209t-217.5 80h-88z" />
<glyph unicode="E" horiz-adv-x="1236" d="M4 0l389 1446h989l-92 -344h-536l-56 -207h459l-90 -334h-459l-59 -221h684l-315 -340h-914z" />
<glyph unicode="F" horiz-adv-x="1110" d="M4 0l389 1446h1012l-90 -340h-551l-68 -252h455l-90 -338h-455l-139 -516h-463z" />
<glyph unicode="G" horiz-adv-x="1622" d="M156 627q0 121 33.5 238.5t111.5 231t191.5 199.5t284.5 139.5t380 53.5q289 0 545 -82l-92 -342q-213 121 -445 121q-139 0 -250.5 -50.5t-179 -131t-102.5 -176t-35 -193.5q0 -158 97.5 -267.5t260.5 -109.5q68 0 129 23l64 241h-318l240 287h586l-189 -713 q-299 -139 -569 -139q-205 0 -369.5 70.5t-269 226.5t-104.5 373z" />
<glyph unicode="H" horiz-adv-x="1536" d="M4 0l389 1446h449l-144 -528h449l143 528h449l-387 -1446h-451l156 578h-449l-155 -578h-449z" />
<glyph unicode="I" horiz-adv-x="641" d="M8 0l387 1446h447l-387 -1446h-447z" />
<glyph unicode="J" horiz-adv-x="1024" d="M-45 109l238 272l12 -12q12 -12 25.5 -22.5t32 -24t43 -20.5t48.5 -7q63 0 97 49t71 186l246 916h463l-283 -1055q-117 -434 -579 -434q-236 0 -414 152z" />
<glyph unicode="K" horiz-adv-x="1492" d="M4 0l389 1446h453l-168 -621l579 621h541l-659 -705l293 -741h-467l-301 772l-207 -772h-453z" />
<glyph unicode="L" horiz-adv-x="1236" d="M4 0l387 1446h457l-299 -1110h706l-315 -336h-936z" />
<glyph unicode="M" horiz-adv-x="1921" d="M-49 0l526 1446h477l88 -795l500 795h486l-236 -1446h-451l205 938l-606 -938h-143l-109 958l-299 -958h-438z" />
<glyph unicode="N" horiz-adv-x="1622" d="M4 0l389 1446h373l426 -733l194 733h439l-387 -1446h-312l-469 811l-208 -811h-445z" />
<glyph unicode="O" horiz-adv-x="1705" d="M156 623q0 152 55 301t158.5 277t276.5 208t388 80q313 0 518 -179.5t205 -492.5q0 -109 -30.5 -222.5t-100.5 -229t-171 -205.5t-254.5 -146.5t-338.5 -56.5q-319 0 -512.5 187.5t-193.5 478.5zM604 618q0 -152 81 -232.5t202 -80.5q109 0 193.5 54.5t134 138.5t74 174 t24.5 174q0 152 -78 231.5t-197 79.5q-131 0 -234.5 -90t-151.5 -211t-48 -238z" />
<glyph unicode="P" horiz-adv-x="1366" d="M4 0l389 1446h627q145 0 248.5 -40t152.5 -105.5t69.5 -126t20.5 -121.5q0 -86 -34.5 -170t-107.5 -160t-204 -123t-303 -47q-92 0 -244 25l-155 -578h-459zM629 616l256 254q59 0 117.5 31t58.5 105q0 116 -163 116h-3h-131z" />
<glyph unicode="Q" horiz-adv-x="1705" d="M160 616q0 205 93 393.5t257 311.5q227 168 551 168q313 0 500.5 -185.5t187.5 -472.5q0 -307 -240 -600l240 -294l-291 -246l-264 321q-172 -55 -340 -55q-43 0 -91 5t-128 22.5t-162 62.5t-145 111q-168 172 -168 458zM610 608q0 -141 77 -223t192 -82q100 0 185 54.5 t136 138.5t80 177t29 177q0 147 -77 227t-192 80q-188 0 -309 -176t-121 -373z" />
<glyph unicode="R" horiz-adv-x="1409" d="M4 0l387 1446h623q205 0 338 -105.5t133 -285.5q0 -119 -75 -238t-249 -178l221 -639h-454l-183 602q-8 0 -28.5 -1t-32.5 -1q-47 0 -78 4l-162 -604h-440zM616 641l242 229h39q70 0 112 36t42 93q0 131 -187 131h-116z" />
<glyph unicode="S" horiz-adv-x="1110" d="M-20 59l94 355q176 -123 348 -123q80 0 145.5 39t65.5 123q0 47 -27.5 80.5t-109.5 103.5l-41 35q-188 158 -189 344q0 158 107 284q158 188 458 189q227 0 449 -111l-94 -346q-43 55 -122 94t-175 39q-90 0 -134 -46t-44 -99q0 -47 27.5 -84t99.5 -98l55 -47 q192 -155 192 -349q0 -141 -77 -256q-53 -78 -134 -130t-168.5 -70.5t-134.5 -23.5t-92 -5q-259 0 -499 102z" />
<glyph unicode="T" d="M209 1104l92 342h1192l-92 -342h-346l-297 -1104h-457l297 1104h-389z" />
<glyph unicode="U" horiz-adv-x="1536" d="M143 453q0 78 45 249l201 744h455l-223 -828q-25 -86 -25 -149q0 -86 57.5 -131t134.5 -45q113 0 172.5 69.5t96.5 208.5l233 875h459l-246 -911q-49 -186 -102 -275.5t-152 -165.5q-178 -137 -467 -137q-113 0 -220 26.5t-204.5 81t-156 154.5t-58.5 234z" />
<glyph unicode="V" horiz-adv-x="1536" d="M293 1446h442l47 -938l561 938h504l-979 -1446h-422z" />
<glyph unicode="W" horiz-adv-x="2048" d="M268 0l33 1446h432l-63 -914l575 914h113l121 -914l411 914h457l-729 -1446h-418l-80 678l-438 -678h-414z" />
<glyph unicode="X" horiz-adv-x="1449" d="M-104 0l694 772l-283 674h463l131 -346l301 346h518l-649 -723l305 -723h-456l-162 377l-332 -377h-530z" />
<glyph unicode="Y" horiz-adv-x="1449" d="M279 1446h462l129 -555l381 555h525l-783 -959l-131 -487h-454l141 526z" />
<glyph unicode="Z" horiz-adv-x="1409" d="M-25 0l86 322l811 780h-602l92 344h1203l-92 -344l-814 -762h775l-334 -340h-1125z" />
<glyph unicode="[" horiz-adv-x="663" d="M-45 -295l500 1868h536l-71 -273h-175l-354 -1323h174l-73 -272h-537z" />
<glyph unicode="\" horiz-adv-x="894" d="M287 1446h393l135 -1446h-387z" />
<glyph unicode="]" horiz-adv-x="663" d="M-170 -293l74 270h172l356 1323h-174l74 275h534l-499 -1868h-537z" />
<glyph unicode="^" horiz-adv-x="1482" d="M170 571l682 875h377l196 -875h-401l-72 506l-354 -506h-428z" />
<glyph unicode="_" horiz-adv-x="1024" d="M76 -231h1065v-261h-1065v261z" />
<glyph unicode="`" horiz-adv-x="555" d="M-4 1407l98 272l469 -354l-94 -238z" />
<glyph unicode="a" d="M68 324q0 156 78.5 311.5t203.5 255.5q189 151 455 151h4q217 0 453 -114l-191 -709q-22 -94 -22 -148q0 -37 8 -71h-359q-14 53 -14 102q0 51 8 95l-205 -205q-57 -16 -118 -17q-72 0 -127.5 21.5t-86 59.5t-50 75t-26.5 83t-9 66.5t-2 43.5zM455 362q0 -141 137 -141 q68 0 115 41l135 504q-33 12 -68 12q-135 0 -223 -123q-41 -55 -68.5 -140t-27.5 -153z" />
<glyph unicode="b" d="M14 80l365 1366h389l-168 -631l213 217q92 10 105 10q147 0 226 -100t79 -252q0 -141 -72 -311q-176 -410 -647 -410q-145 0 -287.5 35t-202.5 76zM451 262q33 -29 84 -29q133 0 211.5 135.5t78.5 274.5q0 18 -3 35.5t-12 48.5t-35.5 49.5t-67.5 18.5q-49 0 -125 -47z " />
<glyph unicode="c" horiz-adv-x="1024" d="M92 430q0 143 55.5 250.5t116.5 169.5q187 192 489 192h3q184 0 350 -65l-76 -285q-111 84 -231 84q-135 0 -220 -96t-85 -227q0 -225 251 -226q127 1 281 58l-264 -291q-92 -25 -170 -25q-217 0 -358.5 123t-141.5 338z" />
<glyph unicode="d" d="M68 328q0 207 122 409q88 147 230.5 226t316.5 79q98 0 168 -22l115 426h389l-387 -1446h-389l61 231l-211 -239q-82 -16 -112 -17q-150 0 -226.5 100.5t-76.5 252.5zM467 375q0 -80 37 -113t86 -33q74 1 119 58l127 473q-39 16 -84 16q-70 0 -121 -37 q-72 -53 -118 -160.5t-46 -203.5z" />
<glyph unicode="e" d="M90 459q0 242 180.5 412.5t456.5 170.5q227 0 353 -120.5t126 -305.5q0 -72 -24 -184h-705q14 -72 21 -84q61 -125 266 -125q174 0 381 68l-273 -293q-121 -29 -241 -29q-127 0 -225.5 34t-157 85t-95 119.5t-50 129t-13.5 122.5zM518 623h326q2 10 2 32q0 76 -40 110 t-91 34q-131 0 -197 -176z" />
<glyph unicode="f" horiz-adv-x="768" d="M53 0l197 725h-154l230 287l22 86q57 215 196.5 297t340.5 82q106 0 211 -29l-74 -281q-66 31 -117 31q-137 0 -182 -162l-6 -24h211l-76 -287h-211l-195 -725h-393z" />
<glyph unicode="g" d="M-57 -317l84 309q150 -137 329 -137q150 0 217.5 84t116.5 270l21 78l-240 -226q-41 -10 -88 -10q-152 0 -236 117q-65 89 -65 227q0 108 35 205q76 211 258 326.5t428 115.5q256 0 475 -90l-248 -919q-33 -123 -78 -196t-116 -126q-172 -133 -451 -133q-236 0 -442 105z M473 436q0 -74 41 -102.5t86 -28.5q64 0 125 39l115 430q-43 14 -74 14q-111 0 -195 -100q-41 -47 -69.5 -118.5t-28.5 -133.5z" />
<glyph unicode="h" horiz-adv-x="1236" d="M-8 0l387 1446h395l-176 -660l225 228q105 28 173 28h5q115 0 192 -58t77 -171q0 -51 -31 -162l-174 -651h-391l145 539q23 86 23 120q0 51 -31 81t-82 30q-59 0 -151 -57l-191 -713h-395z" />
<glyph unicode="i" horiz-adv-x="555" d="M-10 0l272 1012h395l-272 -1012h-395zM322 1321q0 78 53 132t131 54q82 0 138 -54t56 -136q0 -80 -54 -133.5t-134 -53.5t-135 54.5t-55 136.5z" />
<glyph unicode="j" horiz-adv-x="555" d="M-125 -428l387 1440h395l-327 -1221zM322 1321q0 78 53 132t131 54q82 0 138 -54t56 -136q0 -80 -54 -133.5t-134 -53.5t-135 54.5t-55 136.5z" />
<glyph unicode="k" d="M-8 0l387 1446h391l-219 -823l389 389h471l-461 -461l191 -551h-410l-196 567l-152 -567h-391z" />
<glyph unicode="l" horiz-adv-x="555" d="M-12 0l387 1446h397l-387 -1446h-397z" />
<glyph unicode="m" horiz-adv-x="1878" d="M-8 0l270 1012h393l-65 -240l239 242q101 28 178 28h5q96 0 169.5 -47t73.5 -166q0 -20 -4 -57l236 244q121 26 176 26h4q133 0 191.5 -65.5t58.5 -145.5q0 -35 -29 -149l-182 -682h-397l151 561q23 90 23 117q0 31 -21.5 59.5t-70.5 28.5q-80 0 -158 -66l-189 -700h-397 l148 545q25 92 24 131q0 41 -25.5 65.5t-66.5 24.5q-70 0 -156 -66l-188 -700h-391z" />
<glyph unicode="n" horiz-adv-x="1236" d="M-8 0l270 1012h393l-63 -232l237 234q98 29 178 29q1 -1 3 -1q80 0 137 -27.5t81.5 -68.5t34 -73.5t9.5 -61.5q0 -45 -25 -137l-182 -674h-389l137 508q31 111 31 151q0 39 -25.5 74t-89.5 35q-66 0 -156 -55l-190 -713h-391z" />
<glyph unicode="o" horiz-adv-x="1236" d="M94 436q0 55 12.5 117.5t43 139.5t96 149.5t157.5 124.5q131 75 307 75h5q242 0 381 -137t139 -342q0 -90 -32 -185t-98.5 -190.5t-192.5 -157t-291 -61.5q-229 0 -378 120t-149 347zM481 387q0 -160 135 -160q63 0 111.5 49.5t72 119t35 126.5t11.5 94q0 90 -39 129 t-94 39q-72 0 -128.5 -71.5t-80 -159.5t-23.5 -166z" />
<glyph unicode="p" d="M-121 -422l383 1434h389l-59 -221l211 221q64 26 115 26h4q51 0 100 -17t95 -56t74 -112t28 -171q0 -119 -43 -242q-76 -219 -238 -345t-389 -126q-94 0 -170 21l-111 -412h-389zM449 252q43 -16 90 -16q109 0 184 106q41 57 68.5 141t27.5 154q0 66 -31.5 106.5 t-91 40.5t-118.5 -47z" />
<glyph unicode="q" d="M66 328q0 68 17 149.5t66.5 185t124 185.5t203.5 138t291 56h4q242 0 500 -112l-363 -1352h-389l168 625l-213 -217q-57 -10 -96 -11q-88 0 -151.5 34t-93.5 75t-47 99.5t-19 87t-2 57.5zM461 367q0 -76 37 -111t82 -35q64 0 125 49l129 482q-30 26 -85 26h-4 q-127 0 -205.5 -136t-78.5 -275z" />
<glyph unicode="r" horiz-adv-x="894" d="M-8 0l270 1012h400l-62 -228l225 226q58 22 118 22h5q68 0 117 -24l-98 -369q-117 104 -265 104q-68 0 -120 -24l-193 -719h-397z" />
<glyph unicode="s" horiz-adv-x="894" d="M-10 70l76 280q8 -4 36.5 -22.5t41 -25.5t39 -22.5t45 -22.5t43 -15.5t48 -12.5t46.5 -4q61 0 87.5 27t26.5 59q0 31 -22.5 50.5t-83.5 56.5l-60 35q-151 87 -151 231q0 84 41 159t108 122q112 77 296 77h5q213 0 373 -86l-72 -268q-123 100 -249 100q-59 0 -90 -25.5 t-31 -60.5q0 -25 20.5 -48t36.5 -32.5t47 -25.5l35 -18q178 -94 178 -250q0 -139 -108 -238q-131 -121 -355 -121q-207 0 -407 101z" />
<glyph unicode="t" horiz-adv-x="811" d="M92 725l225 287l31 116l438 172l-77 -288h217l-78 -287h-215l-74 -268q-23 -84 -22 -119q0 -94 131 -94q66 0 184 26l-256 -272q-90 -29 -166 -29q-156 0 -231.5 82t-75.5 187q0 53 18 122l99 365h-148z" />
<glyph unicode="u" horiz-adv-x="1236" d="M66 215q0 57 22 143l174 654h400l-148 -553q-22 -79 -22 -118q0 -19 6 -38.5t30.5 -41t65.5 -21.5q70 0 154 55l192 717h397l-270 -1012h-399l61 231l-227 -237q-82 -25 -162 -25q-104 0 -189 60.5t-85 185.5z" />
<glyph unicode="v" d="M164 1012h385l24 -660l357 660h440l-680 -1012h-414z" />
<glyph unicode="w" horiz-adv-x="1748" d="M158 0l24 1012h400l-52 -572l342 572h369v-572l295 572h387l-545 -1012h-420l-10 598l-373 -598h-417z" />
<glyph unicode="x" horiz-adv-x="1236" d="M-96 0l565 541l-254 471h379l129 -228l240 228h452l-541 -514l271 -498h-389l-133 250l-261 -250h-458z" />
<glyph unicode="y" d="M-168 -379l182 258q43 -10 86 -10q57 0 99.5 22.5t55.5 42t19 37.5l11 31l-107 1010h393l21 -623l334 623h452l-766 -1135q-49 -72 -87 -115t-98 -91t-142 -70.5t-189 -22.5q-131 0 -264 43z" />
<glyph unicode="z" horiz-adv-x="1110" d="M-10 0l71 270l525 459h-402l76 283h934l-76 -283l-518 -444h510l-279 -285h-841z" />
<glyph unicode="{" horiz-adv-x="712" d="M84 532l61 234q115 4 157 40t79 173l68 258q51 199 125.5 267.5t269.5 68.5h200l-61 -234h-39q-59 0 -92 -29.5t-53 -103.5l-82 -305q-39 -147 -84 -201.5t-160 -70.5q119 -43 119 -158q0 -41 -19 -111l-55 -206q-29 -109 -29 -142q0 -35 24 -56.5t65 -21.5h28l-61 -233 h-168q-131 0 -201 53t-70 156q0 61 21 131l78 278q18 61 18 107q0 53 -31.5 76.5t-107.5 29.5z" />
<glyph unicode="|" horiz-adv-x="600" d="M-47 -295l500 1868h362l-500 -1868h-362z" />
<glyph unicode="}" horiz-adv-x="712" d="M-170 -299l61 233h39q59 0 92 30t54 104l82 305q41 147 86 201.5t157 70.5q-119 43 -118 158q0 41 18 110l55 207q29 109 29 142q0 35 -23.5 56t-64.5 21h-29l62 234h168q131 0 200.5 -53.5t69.5 -155.5q0 -61 -20 -131l-78 -279q-18 -74 -19 -106q0 -53 32 -76.5 t108 -30.5l-62 -233q-115 -4 -157 -40t-78 -173l-68 -258q-51 -199 -126 -267.5t-269 -68.5h-201z" />
<glyph unicode="~" horiz-adv-x="1482" d="M201 414l112 426q143 117 291 116q102 0 232 -67l112 -60q100 -53 170 -53t153 47t204 148l-111 -424q-184 -133 -338 -133q-100 0 -235 75l-64 37q-109 63 -195 64q-135 0 -331 -176z" />
<glyph unicode="&#xa1;" horiz-adv-x="598" d="M-4 0l280 879l340 112l-219 -991h-401zM338 1270q0 84 57.5 142t143.5 58q84 0 142 -58t58 -142q0 -86 -59 -143.5t-143 -57.5t-141.5 58.5t-57.5 142.5z" />
<glyph unicode="&#xa2;" horiz-adv-x="1062" d="M115 440q0 231 143 403.5t358 198.5l66 246h307l-65 -246q100 -10 196 -55l-80 -307q-90 82 -219 82q-131 0 -207.5 -85t-76.5 -216q0 -84 55 -141.5t180 -57.5q132 0 275 57l-271 -313q-37 -10 -135 -20l-68 -252h-307l80 299q-84 37 -157.5 136t-73.5 271z" />
<glyph unicode="&#xa3;" horiz-adv-x="1409" d="M29 0l268 317l61 226h-264l78 291h264l43 153q45 158 155.5 260.5t233.5 139t262 36.5q193 0 377 -67l-88 -326q-117 76 -248 76q-115 0 -189.5 -58.5t-119.5 -199.5l-4 -14h371l-78 -291h-371l-61 -226h680l-283 -317h-1087z" />
<glyph unicode="&#xa4;" horiz-adv-x="1470" d="M141 268l174 160q-72 117 -71 272q0 188 104 344l-151 173l200 184l152 -174q121 72 276 71q176 0 332 -104l172 156l182 -207l-172 -154q68 -135 68 -278q0 -186 -104 -342l153 -176l-205 -185l-153 176q-137 -70 -271 -69q-184 0 -333 108l-172 -160zM551 702 q0 -117 80 -198.5t194.5 -81.5t194.5 81t80 206q0 119 -78 201.5t-193 82.5q-119 0 -198.5 -83t-79.5 -208z" />
<glyph unicode="&#xa5;" horiz-adv-x="1495" d="M154 330l57 205h367l-35 108h-303l57 205h178l-176 551h465l127 -508l381 508h524l-487 -551h178l-57 -205h-302l-96 -108h369l-58 -205h-368l-92 -330h-455l92 330h-366z" />
<glyph unicode="&#xa6;" horiz-adv-x="600" d="M-49 -297l215 801h364l-215 -801h-364zM238 770l215 801h362l-213 -801h-364z" />
<glyph unicode="&#xa7;" horiz-adv-x="1067" d="M-90 -326l94 346q160 -139 277 -139q45 0 85 24.5t40 74.5q0 53 -78 108l-56 41q-35 25 -57 45.5t-60 65.5t-57.5 107.5t-19.5 137.5q0 141 106.5 252t251.5 137q-72 96 -71 201q0 92 49 180q49 92 157.5 160t284.5 68q194 0 391 -115l-90 -332q-78 78 -134 109t-116 31 q-45 0 -84 -25t-39 -76q0 -53 78 -112l53 -41q182 -139 183 -324q0 -139 -97.5 -262t-242.5 -154q66 -111 65 -196q0 -154 -118 -271q-143 -141 -394 -141q-180 0 -401 100zM457 510q0 -55 31.5 -97.5t58.5 -60.5q66 14 114 70.5t48 128.5q0 23 -5.5 44t-15.5 39.5t-17 29 t-20 24.5l-12 14q-2 0 -14.5 -3t-19.5 -5t-20.5 -6t-23.5 -9t-23.5 -13.5t-24.5 -20.5t-21 -27q-35 -49 -35 -108z" />
<glyph unicode="&#xa8;" horiz-adv-x="555" d="M-98 1341q0 66 45 114t114 48q72 0 118 -46t46 -115.5t-48 -115.5t-116 -46q-70 0 -114.5 45.5t-44.5 115.5zM332 1341q0 66 45 114t115 48q72 0 117.5 -46t45.5 -115.5t-48 -115.5t-115 -46q-70 0 -115 45.5t-45 115.5z" />
<glyph unicode="&#xa9;" horiz-adv-x="1705" d="M229 727q0 305 211 515t518 210q305 0 516.5 -210t211.5 -513q0 -311 -213 -523t-519 -212q-303 0 -514 213t-211 520zM328 721q0 -266 184 -453.5t444 -187.5q258 0 442.5 187.5t184.5 451.5q0 272 -181 459.5t-446 187.5q-262 0 -445 -188.5t-183 -456.5zM526 659 q0 229 145.5 376t372.5 147q179 0 302 -82l-82 -254q-70 92 -185 92q-104 0 -172.5 -77t-68.5 -191q0 -90 60 -141.5t167 -51.5q78 0 186 35l-186 -242q-72 -14 -127 -14q-184 0 -298 111.5t-114 291.5z" />
<glyph unicode="&#xaa;" horiz-adv-x="811" d="M242 999q0 66 26.5 142t79.5 151.5t151.5 124.5t221.5 49q147 0 293 -75l-123 -457q-14 -51 -14 -96q0 -29 4 -45h-230q-10 27 -10 53q0 43 6 74l-135 -134q-37 -8 -80 -8q-59 0 -100 24.5t-59.5 63.5t-24.5 71t-6 62zM492 1028q0 -92 88 -92q42 0 75 25l88 327 q-25 6 -49 6q-63 0 -112.5 -50t-69.5 -109.5t-20 -106.5z" />
<glyph unicode="&#xab;" horiz-adv-x="1110" d="M90 621l234 290h342l-248 -309l155 -336h-317zM588 584l264 327h344l-278 -342l139 -303h-320z" />
<glyph unicode="&#xac;" horiz-adv-x="1482" d="M186 518l86 324h1158l-207 -779h-410l123 455h-750z" />
<glyph unicode="&#xad;" horiz-adv-x="894" d="M33 403l266 273h672l-269 -273h-669z" />
<glyph unicode="&#xae;" horiz-adv-x="1705" d="M229 727q0 305 211 515t518 210q305 0 516.5 -210t211.5 -513q0 -311 -213 -523t-519 -212q-303 0 -514 213t-211 520zM328 721q0 -266 184 -453.5t444 -187.5q258 0 442.5 187.5t184.5 451.5q0 272 -181 459.5t-446 187.5q-262 0 -445 -188.5t-183 -456.5zM514 307 l238 877h254q387 0 387 -254q0 -100 -53.5 -170t-151.5 -96l125 -357h-283l-98 340h-58l-92 -340h-268zM885 688l121 121q6 -2 24 -2q47 0 75 27.5t28 74.5q0 82 -93 82h-73z" />
<glyph unicode="&#xaf;" horiz-adv-x="555" d="M-82 1225l64 250h663l-63 -250h-664z" />
<glyph unicode="&#xb0;" horiz-adv-x="724" d="M168 1174q0 147 102.5 249.5t249.5 102.5q143 0 247.5 -101.5t104.5 -244.5q0 -160 -104 -260.5t-248 -100.5q-127 0 -229 86q-123 104 -123 269zM408 1177.5q0 -47.5 33.5 -81t80.5 -33.5t81 33.5t34 81t-35 80t-82 32.5t-79.5 -32.5t-32.5 -80z" />
<glyph unicode="&#xb1;" horiz-adv-x="1482" d="M104 0l84 315h1108l-84 -315h-1108zM315 784l82 312h351l96 350h407l-94 -350h350l-84 -312h-352l-96 -364h-410l99 364h-349z" />
<glyph unicode="&#xb2;" horiz-adv-x="874" d="M135 494l55 196l322 268q117 98 117 158q0 80 -92 80q-88 0 -246 -113l65 256q143 76 279 76q129 0 217 -66.5t88 -193.5q0 -166 -174 -301l-180 -141h360l-207 -219h-604z" />
<glyph unicode="&#xb3;" horiz-adv-x="874" d="M162 541l63 245q100 -88 205 -88q135 0 135 82q0 96 -180 97q-37 0 -49 -3l139 175h23q143 6 143 81q0 68 -109 68q-47 0 -104 -23.5t-90 -54.5l61 244q137 51 258 51q145 0 213 -72.5t68 -158.5q0 -160 -184 -230q51 -18 81.5 -56t38 -67.5t7.5 -58.5 q0 -125 -102.5 -210t-315.5 -85q-174 0 -301 64z" />
<glyph unicode="&#xb4;" horiz-adv-x="555" d="M8 1092l76 319l467 313l-70 -348z" />
<glyph unicode="&#xb6;" horiz-adv-x="1306" d="M264 -342l256 958q-219 106 -219 347q0 121 55.5 225t153.5 170q74 47 165 67.5t243 20.5h489l-45 -170h-74l-428 -1618h-182l430 1618h-231l-431 -1618h-182z" />
<glyph unicode="&#xb7;" horiz-adv-x="512" d="M115 567q0 86 57 143.5t141 57.5q86 0 144.5 -57.5t58.5 -143.5t-57.5 -143t-143.5 -57q-84 0 -142 58t-58 142z" />
<glyph unicode="&#xb8;" horiz-adv-x="555" d="M47 -539l45 170q90 4 123 31t33 74q0 37 -24.5 60.5t-67.5 25.5l131 209h180l-86 -127q59 -16 92 -63.5t33 -106.5q0 -80 -42 -136.5t-113.5 -84t-145.5 -40t-158 -12.5z" />
<glyph unicode="&#xb9;" horiz-adv-x="874" d="M352 494l168 618l-155 -37l63 240l473 104l-248 -925h-301z" />
<glyph unicode="&#xba;" horiz-adv-x="811" d="M248 1073q0 166 113.5 279.5t279.5 113.5q174 0 259 -94t85 -207q0 -92 -38 -178t-131 -150.5t-224 -64.5q-162 0 -253 82t-91 219zM498 1049q0 -111 88 -111q70 0 108.5 86t38.5 168q0 106 -86 106q-74 0 -111.5 -89.5t-37.5 -159.5z" />
<glyph unicode="&#xbb;" horiz-adv-x="1110" d="M45 266l279 342l-138 303h320l147 -317l-264 -328h-344zM578 266l247 309l-155 336h317l164 -354l-231 -291h-342z" />
<glyph unicode="&#xbc;" horiz-adv-x="2000" d="M287 494l168 618l-156 -37l63 240l474 104l-248 -925h-301zM412 0l878 1399h269l-883 -1399h-264zM1030 180l49 180l410 545h399l-141 -524h111l-123 -201h-41l-49 -180h-263l50 180h-402zM1325 381h174l115 381z" />
<glyph unicode="&#xbd;" horiz-adv-x="2000" d="M291 494l168 618l-156 -37l64 240l473 104l-248 -925h-301zM410 0l878 1399h268l-882 -1399h-264zM1090 0l55 197l321 268q117 96 117 158q0 80 -92 79q-88 0 -246 -112l66 256q143 76 278 76q129 0 217 -67t88 -193q0 -166 -174 -302l-180 -141h361l-207 -219h-604z" />
<glyph unicode="&#xbe;" horiz-adv-x="2000" d="M162 551l63 246q100 -88 205 -88q135 0 135 82q0 96 -180 96q-37 0 -49 -2l139 174h23q143 6 143 82q0 68 -109 67q-47 0 -104 -23.5t-90 -54.5l61 244q137 51 258 51q145 0 213 -72.5t68 -158.5q0 -160 -184 -229q51 -18 81.5 -56.5t38 -68t7.5 -58.5 q0 -125 -102.5 -210t-315.5 -85q-174 0 -301 64zM545 10l878 1399h269l-883 -1399h-264zM1149 190l49 181l410 544h399l-141 -524h110l-123 -201h-41l-49 -180h-262l49 180h-401zM1444 391h174l115 381z" />
<glyph unicode="&#xbf;" horiz-adv-x="937" d="M41 322q0 160 112.5 272.5t278.5 136.5l37 135l397 117l-123 -459q-2 0 -27.5 2t-47.5 2q-31 0 -62 -5t-66.5 -17t-58 -41t-22.5 -70q0 -39 34.5 -75.5t114.5 -36.5q143 0 295 116l-94 -348q-176 -76 -365 -76q-180 0 -291.5 94.5t-111.5 252.5zM559 1270q0 84 57.5 142 t143.5 58q84 0 142.5 -58t58.5 -142q0 -86 -58.5 -143.5t-144.5 -57.5q-84 0 -141.5 58.5t-57.5 142.5z" />
<glyph unicode="&#xc0;" horiz-adv-x="1536" d="M-86 0l938 1446h485l109 -1446h-436l-15 233h-467l-143 -233h-471zM711 532h270l-18 424zM735 1753l62 252l567 -268l-53 -215z" />
<glyph unicode="&#xc1;" horiz-adv-x="1536" d="M-86 0l938 1446h485l109 -1446h-436l-15 233h-467l-143 -233h-471zM711 532h270l-18 424zM854 1522l74 258l569 223l-67 -283z" />
<glyph unicode="&#xc2;" horiz-adv-x="1536" d="M-86 0l938 1446h485l109 -1446h-436l-15 233h-467l-143 -233h-471zM711 532h270l-18 424zM741 1520l64 239l366 199l334 -227l-57 -211l-307 170z" />
<glyph unicode="&#xc3;" horiz-adv-x="1536" d="M-86 0l938 1446h485l109 -1446h-436l-15 233h-467l-143 -233h-471zM711 532h270l-18 424zM766 1593l70 244q92 61 184 61q49 0 151 -36l29 -11q90 -35 143 -34q95 -1 193 71l-70 -239q-78 -68 -180 -68q-43 0 -115 23l-61 20q-106 37 -154 37q-92 0 -190 -68z" />
<glyph unicode="&#xc4;" horiz-adv-x="1536" d="M-86 0l938 1446h485l109 -1446h-436l-15 233h-467l-143 -233h-471zM711 532h270l-18 424zM725 1731q0 68 47 119t117 51q72 0 119 -48.5t47 -122t-48.5 -121.5t-118 -48t-116.5 49t-47 121zM1180 1731q0 68 46 119t115 51q72 0 120 -48.5t48 -122t-49 -121.5t-118.5 -48 t-115.5 49t-46 121z" />
<glyph unicode="&#xc5;" horiz-adv-x="1536" d="M-86 0l938 1446h485l109 -1446h-436l-15 233h-467l-143 -233h-471zM711 532h270l-18 424zM887 1765q0 100 70.5 169t172.5 69q104 0 175 -69t71 -169q0 -104 -69.5 -171.5t-176 -67.5t-175 67.5t-68.5 171.5zM1042 1765q0 -41 25 -66.5t63.5 -25.5t63.5 25.5t25 66.5 t-24 65.5t-65 24.5q-39 0 -63.5 -25.5t-24.5 -64.5z" />
<glyph unicode="&#xc6;" horiz-adv-x="2304" d="M-88 0l1286 1446h1256l-93 -344h-540l-56 -207h459l-88 -334h-461l-59 -221h686l-317 -340h-902l80 299h-471l-256 -299h-524zM954 610h293l137 514z" />
<glyph unicode="&#xc7;" horiz-adv-x="1409" d="M156 616q0 371 266 622t694 251q260 0 447 -68l-93 -342q-4 2 -25.5 13.5t-35.5 17.5t-41 17.5t-51.5 18.5t-55 14t-63.5 11.5t-68 4.5q-227 0 -374.5 -162t-147.5 -375q0 -180 113 -278.5t307 -98.5q162 0 416 98l-338 -368q-152 -31 -215 -33l-39 -59q61 -18 95 -67 t34 -112q0 -82 -44 -141t-118 -88t-149.5 -41t-161.5 -12l47 176q92 4 126 31.5t34 77.5q0 39 -24.5 63.5t-69.5 26.5l94 151q-258 35 -408.5 208t-150.5 443z" />
<glyph unicode="&#xc8;" horiz-adv-x="1236" d="M4 0l389 1446h989l-92 -344h-536l-56 -207h459l-90 -334h-459l-59 -221h684l-315 -340h-914zM492 1753l61 252l567 -268l-53 -215z" />
<glyph unicode="&#xc9;" horiz-adv-x="1236" d="M4 0l389 1446h989l-92 -344h-536l-56 -207h459l-90 -334h-459l-59 -221h684l-315 -340h-914zM659 1522l74 258l570 223l-68 -283z" />
<glyph unicode="&#xca;" horiz-adv-x="1236" d="M4 0l389 1446h989l-92 -344h-536l-56 -207h459l-90 -334h-459l-59 -221h684l-315 -340h-914zM526 1520l64 239l366 199l334 -227l-57 -211l-307 170z" />
<glyph unicode="&#xcb;" horiz-adv-x="1236" d="M4 0l389 1446h989l-92 -344h-536l-56 -207h459l-90 -334h-459l-59 -221h684l-315 -340h-914zM518 1731q0 68 47 119t117 51q72 0 119 -48.5t47 -122t-48 -121.5t-118 -48t-117 49t-47 121zM973 1731q0 68 46 119t116 51q72 0 120 -48.5t48 -122t-49.5 -121.5t-119 -48 t-115.5 49t-46 121z" />
<glyph unicode="&#xcc;" horiz-adv-x="641" d="M8 0l387 1446h447l-387 -1446h-447zM293 1753l61 252l568 -268l-54 -215z" />
<glyph unicode="&#xcd;" horiz-adv-x="641" d="M8 0l387 1446h447l-387 -1446h-447zM387 1522l74 258l569 223l-67 -283z" />
<glyph unicode="&#xce;" horiz-adv-x="641" d="M8 0l387 1446h447l-387 -1446h-447zM264 1520l64 239l366 199l334 -227l-57 -211l-307 170z" />
<glyph unicode="&#xcf;" horiz-adv-x="641" d="M8 0l387 1446h447l-387 -1446h-447zM264 1731q0 68 47 119t117 51q72 0 119 -48.5t47 -122t-48 -121.5t-118 -48t-117 49t-47 121zM719 1731q0 68 46 119t116 51q72 0 120 -48.5t48 -122t-49.5 -121.5t-119 -48t-115.5 49t-46 121z" />
<glyph unicode="&#xd0;" horiz-adv-x="1536" d="M4 0l166 621h-94l67 251h95l153 574h590q121 0 254 -42t225 -149q133 -154 133 -387q0 -123 -29.5 -241.5t-97 -233t-167 -201t-250 -139.5t-332.5 -53h-713zM539 330h123q131 0 226 51t143 132t69.5 161t21.5 155q0 29 -3 55.5t-18.5 71.5t-43 76t-86 55.5t-135.5 24.5 h-88l-64 -240h225l-69 -251h-224z" />
<glyph unicode="&#xd1;" horiz-adv-x="1622" d="M4 0l389 1446h373l426 -733l194 733h439l-387 -1446h-312l-469 811l-208 -811h-445zM764 1593l70 244q92 61 184 61q49 0 151 -36l29 -11q90 -35 143 -34q97 -1 193 71l-70 -239q-78 -68 -180 -68q-43 0 -115 23l-61 20q-109 37 -154 37q-92 0 -190 -68z" />
<glyph unicode="&#xd2;" horiz-adv-x="1705" d="M156 623q0 152 55 301t158.5 277t276.5 208t388 80q313 0 518 -179.5t205 -492.5q0 -109 -30.5 -222.5t-100.5 -229t-171 -205.5t-254.5 -146.5t-338.5 -56.5q-319 0 -512.5 187.5t-193.5 478.5zM604 618q0 -152 81 -232.5t202 -80.5q109 0 193.5 54.5t134 138.5t74 174 t24.5 174q0 152 -78 231.5t-197 79.5q-131 0 -234.5 -90t-151.5 -211t-48 -238zM711 1753l61 252l567 -268l-53 -215z" />
<glyph unicode="&#xd3;" horiz-adv-x="1705" d="M156 623q0 152 55 301t158.5 277t276.5 208t388 80q313 0 518 -179.5t205 -492.5q0 -109 -30.5 -222.5t-100.5 -229t-171 -205.5t-254.5 -146.5t-338.5 -56.5q-319 0 -512.5 187.5t-193.5 478.5zM604 618q0 -152 81 -232.5t202 -80.5q109 0 193.5 54.5t134 138.5t74 174 t24.5 174q0 152 -78 231.5t-197 79.5q-131 0 -234.5 -90t-151.5 -211t-48 -238zM842 1522l73 258l570 223l-68 -283z" />
<glyph unicode="&#xd4;" horiz-adv-x="1705" d="M156 623q0 152 55 301t158.5 277t276.5 208t388 80q313 0 518 -179.5t205 -492.5q0 -109 -30.5 -222.5t-100.5 -229t-171 -205.5t-254.5 -146.5t-338.5 -56.5q-319 0 -512.5 187.5t-193.5 478.5zM604 618q0 -152 81 -232.5t202 -80.5q109 0 193.5 54.5t134 138.5t74 174 t24.5 174q0 152 -78 231.5t-197 79.5q-131 0 -234.5 -90t-151.5 -211t-48 -238zM735 1520l64 239l366 199l334 -227l-57 -211l-307 170z" />
<glyph unicode="&#xd5;" horiz-adv-x="1705" d="M156 623q0 152 55 301t158.5 277t276.5 208t388 80q313 0 518 -179.5t205 -492.5q0 -109 -30.5 -222.5t-100.5 -229t-171 -205.5t-254.5 -146.5t-338.5 -56.5q-319 0 -512.5 187.5t-193.5 478.5zM604 618q0 -152 81 -232.5t202 -80.5q109 0 193.5 54.5t134 138.5t74 174 t24.5 174q0 152 -78 231.5t-197 79.5q-131 0 -234.5 -90t-151.5 -211t-48 -238zM748 1593l69 244q92 61 184 61q49 0 152 -36l29 -11q90 -35 143 -34q97 -1 193 71l-70 -239q-78 -68 -180 -68q-43 0 -115 23l-61 20q-109 37 -154 37q-92 0 -190 -68z" />
<glyph unicode="&#xd6;" horiz-adv-x="1705" d="M156 623q0 152 55 301t158.5 277t276.5 208t388 80q313 0 518 -179.5t205 -492.5q0 -109 -30.5 -222.5t-100.5 -229t-171 -205.5t-254.5 -146.5t-338.5 -56.5q-319 0 -512.5 187.5t-193.5 478.5zM604 618q0 -152 81 -232.5t202 -80.5q109 0 193.5 54.5t134 138.5t74 174 t24.5 174q0 152 -78 231.5t-197 79.5q-131 0 -234.5 -90t-151.5 -211t-48 -238zM721 1731q0 68 47 119t117 51q72 0 119 -48.5t47 -122t-48.5 -121.5t-118 -48t-116.5 49t-47 121zM1176 1731q0 68 46 119t115 51q72 0 120 -48.5t48 -122t-49 -121.5t-118.5 -48t-115.5 49 t-46 121z" />
<glyph unicode="&#xd7;" horiz-adv-x="1482" d="M268 451l295 237l-225 275l313 256l226 -277l292 238l209 -260l-293 -236l232 -285l-313 -254l-232 283l-295 -238z" />
<glyph unicode="&#xd8;" horiz-adv-x="1705" d="M-37 102l260 201q-68 121 -67 311q0 162 59 315.5t169 279.5t285 203t388 77q332 0 504 -172l254 196l131 -172l-258 -196q70 -139 69 -318q0 -203 -103.5 -404.5t-303.5 -332.5q-207 -133 -480 -133q-61 0 -131.5 7t-191.5 49t-195 116l-258 -197zM594 616q0 -20 2 -30 l649 493q-82 88 -207 88q-154 0 -276 -129q-57 -59 -112.5 -172.5t-55.5 -249.5zM678 375q84 -82 215 -82q164 0 291 153q66 82 103.5 195.5t37.5 224.5z" />
<glyph unicode="&#xd9;" horiz-adv-x="1536" d="M143 453q0 78 45 249l201 744h455l-223 -828q-25 -86 -25 -149q0 -86 57.5 -131t134.5 -45q113 0 172.5 69.5t96.5 208.5l233 875h459l-246 -911q-49 -186 -102 -275.5t-152 -165.5q-178 -137 -467 -137q-113 0 -220 26.5t-204.5 81t-156 154.5t-58.5 234zM672 1753 l61 252l567 -268l-53 -215z" />
<glyph unicode="&#xda;" horiz-adv-x="1536" d="M143 453q0 78 45 249l201 744h455l-223 -828q-25 -86 -25 -149q0 -86 57.5 -131t134.5 -45q113 0 172.5 69.5t96.5 208.5l233 875h459l-246 -911q-49 -186 -102 -275.5t-152 -165.5q-178 -137 -467 -137q-113 0 -220 26.5t-204.5 81t-156 154.5t-58.5 234zM922 1522 l73 258l570 223l-68 -283z" />
<glyph unicode="&#xdb;" horiz-adv-x="1536" d="M143 453q0 78 45 249l201 744h455l-223 -828q-25 -86 -25 -149q0 -86 57.5 -131t134.5 -45q113 0 172.5 69.5t96.5 208.5l233 875h459l-246 -911q-49 -186 -102 -275.5t-152 -165.5q-178 -137 -467 -137q-113 0 -220 26.5t-204.5 81t-156 154.5t-58.5 234zM725 1520 l63 239l367 199l334 -227l-57 -211l-308 170z" />
<glyph unicode="&#xdc;" horiz-adv-x="1536" d="M143 453q0 78 45 249l201 744h455l-223 -828q-25 -86 -25 -149q0 -86 57.5 -131t134.5 -45q113 0 172.5 69.5t96.5 208.5l233 875h459l-246 -911q-49 -186 -102 -275.5t-152 -165.5q-178 -137 -467 -137q-113 0 -220 26.5t-204.5 81t-156 154.5t-58.5 234zM705 1731 q0 68 47 119t116 51q72 0 119 -48.5t47 -122t-48 -121.5t-117.5 -48t-116.5 49t-47 121zM1159 1731q0 68 46 119t116 51q72 0 120 -48.5t48 -122t-49 -121.5t-119 -48t-116 49t-46 121z" />
<glyph unicode="&#xdd;" horiz-adv-x="1449" d="M279 1446h462l129 -555l381 555h525l-783 -959l-131 -487h-454l141 526zM870 1522l74 258l569 223l-67 -283z" />
<glyph unicode="&#xde;" horiz-adv-x="1366" d="M4 0l389 1446h457l-72 -270h152q164 0 262 -34t166 -118q82 -98 82 -233q0 -172 -113 -304q-174 -205 -541 -204q-104 0 -219 20l-22 4l-82 -307h-459zM555 346l256 254h14q78 0 121 42t43 91q0 119 -170 119h-129z" />
<glyph unicode="&#xdf;" horiz-adv-x="1280" d="M-8 0l262 979q39 152 82 221q156 276 545 277q276 0 405 -146q86 -92 86 -221q0 -131 -91 -224t-226 -116q45 -18 87 -48t83 -102.5t41 -168.5q0 -66 -23.5 -139.5t-76 -154.5t-161 -134.5t-255.5 -53.5q-129 0 -250 43l75 285q61 -45 125 -45q55 0 94.5 29.5t54.5 71.5 t20 69t5 43q0 63 -28.5 107t-72.5 60.5t-70.5 21.5t-49.5 5q-31 0 -47 -2l236 279q78 20 111.5 62t33.5 87q0 57 -36 92t-95 35q-43 0 -78 -20.5t-55.5 -44t-39.5 -71.5t-26.5 -72.5t-21.5 -75.5l-248 -928h-395z" />
<glyph unicode="&#xe0;" d="M68 324q0 156 78.5 311.5t203.5 255.5q190 152 459 151q217 0 453 -114l-191 -709q-23 -98 -22 -153q0 -33 8 -66h-359q-14 53 -14 102q0 51 8 95l-205 -205q-57 -16 -118 -17q-72 0 -127.5 21.5t-86 59.5t-50 75t-26.5 83t-9 66.5t-2 43.5zM455 362q0 -141 137 -141 q68 0 115 41l135 504q-33 12 -68 12q-135 0 -223 -123q-41 -55 -68.5 -140t-27.5 -153zM492 1407l98 272l469 -354l-94 -238z" />
<glyph unicode="&#xe1;" d="M68 324q0 156 78.5 311.5t203.5 255.5q190 152 459 151q217 0 453 -114l-191 -709q-23 -98 -22 -153q0 -33 8 -66h-359q-14 53 -14 102q0 51 8 95l-205 -205q-57 -16 -118 -17q-72 0 -127.5 21.5t-86 59.5t-50 75t-26.5 83t-9 66.5t-2 43.5zM455 362q0 -141 137 -141 q68 0 115 41l135 504q-33 12 -68 12q-135 0 -223 -123q-41 -55 -68.5 -140t-27.5 -153zM688 1092l76 319l467 313l-70 -348z" />
<glyph unicode="&#xe2;" d="M68 324q0 156 78.5 311.5t203.5 255.5q190 152 459 151q217 0 453 -114l-191 -709q-23 -98 -22 -153q0 -33 8 -66h-359q-14 53 -14 102q0 51 8 95l-205 -205q-57 -16 -118 -17q-72 0 -127.5 21.5t-86 59.5t-50 75t-26.5 83t-9 66.5t-2 43.5zM455 362q0 -141 137 -141 q68 0 115 41l135 504q-33 12 -68 12q-135 0 -223 -123q-41 -55 -68.5 -140t-27.5 -153zM479 1096l64 278l360 260l281 -278l-66 -260l-266 233z" />
<glyph unicode="&#xe3;" d="M68 324q0 156 78.5 311.5t203.5 255.5q190 152 459 151q217 0 453 -114l-191 -709q-23 -98 -22 -153q0 -33 8 -66h-359q-14 53 -14 102q0 51 8 95l-205 -205q-57 -16 -118 -17q-72 0 -127.5 21.5t-86 59.5t-50 75t-26.5 83t-9 66.5t-2 43.5zM455 362q0 -141 137 -141 q68 0 115 41l135 504q-33 12 -68 12q-135 0 -223 -123q-41 -55 -68.5 -140t-27.5 -153zM479 1198l60 234q88 76 170 75q53 0 139 -37l90 -38q51 -20 106 -21q78 1 170 62l-59 -234q-76 -74 -154 -74q-66 0 -120 25l-97 41q-66 29 -127 29q-88 0 -178 -62z" />
<glyph unicode="&#xe4;" d="M68 324q0 156 78.5 311.5t203.5 255.5q190 152 459 151q217 0 453 -114l-191 -709q-23 -98 -22 -153q0 -33 8 -66h-359q-14 53 -14 102q0 51 8 95l-205 -205q-57 -16 -118 -17q-72 0 -127.5 21.5t-86 59.5t-50 75t-26.5 83t-9 66.5t-2 43.5zM455 362q0 -141 137 -141 q68 0 115 41l135 504q-33 12 -68 12q-135 0 -223 -123q-41 -55 -68.5 -140t-27.5 -153zM465 1341q0 66 45 114t115 48q72 0 117.5 -46t45.5 -115.5t-48 -115.5t-115 -46q-70 0 -115 45.5t-45 115.5zM895 1341q0 66 45 114t115 48q72 0 118 -46t46 -115.5t-48.5 -115.5 t-115.5 -46q-70 0 -115 45.5t-45 115.5z" />
<glyph unicode="&#xe5;" d="M68 324q0 156 78.5 311.5t203.5 255.5q190 152 459 151q217 0 453 -114l-191 -709q-23 -98 -22 -153q0 -33 8 -66h-359q-14 53 -14 102q0 51 8 95l-205 -205q-57 -16 -118 -17q-72 0 -127.5 21.5t-86 59.5t-50 75t-26.5 83t-9 66.5t-2 43.5zM455 362q0 -141 137 -141 q68 0 115 41l135 504q-33 12 -68 12q-135 0 -223 -123q-41 -55 -68.5 -140t-27.5 -153zM627 1356q0 98 68.5 164.5t168.5 66.5q102 0 171 -66.5t69 -164.5q0 -100 -68.5 -167t-171.5 -67q-104 0 -170.5 66.5t-66.5 167.5zM778 1356q0 -39 23.5 -64.5t62.5 -25.5t62.5 25.5 t23.5 64.5t-23.5 63.5t-62.5 24.5q-37 0 -61.5 -25.5t-24.5 -62.5z" />
<glyph unicode="&#xe6;" horiz-adv-x="1878" d="M70 336q0 141 50 261t129 194.5t145.5 117.5t125.5 64q193 70 553 69h211l-12 -53q88 53 207 53q166 0 276 -90q139 -113 139 -331q0 -94 -32 -193h-699q4 -209 299 -209q175 0 363 70l-269 -289q-147 -31 -256 -31q-362 0 -489 250l-219 -223q-76 -27 -156 -27 q-121 0 -207 54q-160 100 -159 313zM463 395q0 -61 22.5 -102t58.5 -55.5t56.5 -18.5t42.5 -4q88 0 152 45q-31 80 -31 156q-1 74 67 334q-12 2 -45 2q-123 0 -213 -95q-111 -119 -110 -262zM1200 616h322q8 33 8 52q0 57 -35 95t-94 38q-142 -1 -201 -185z" />
<glyph unicode="&#xe7;" horiz-adv-x="1024" d="M92 430q0 143 55.5 250.5t116.5 169.5q188 193 492 192q184 0 350 -65l-76 -285q-111 84 -231 84q-135 0 -220 -96t-85 -227q0 -225 251 -226q127 0 281 58l-264 -291q-84 -18 -119 -23l-45 -67q59 -16 92 -63.5t33 -106.5q0 -80 -42 -136.5t-113.5 -84t-145.5 -40 t-158 -12.5l45 170q90 4 123 31t33 74q0 37 -24.5 60.5t-67.5 25.5l98 160q-170 31 -274.5 147.5t-104.5 300.5z" />
<glyph unicode="&#xe8;" d="M90 459q0 242 180.5 412.5t456.5 170.5q227 0 353 -120.5t126 -305.5q0 -72 -24 -184h-705q14 -72 21 -84q61 -125 266 -125q174 0 381 68l-273 -293q-121 -29 -241 -29q-127 0 -225.5 34t-157 85t-95 119.5t-50 129t-13.5 122.5zM446 1407l99 272l469 -354l-94 -238z M518 623h326q2 10 2 32q0 76 -40 110t-91 34q-131 0 -197 -176z" />
<glyph unicode="&#xe9;" d="M90 459q0 242 180.5 412.5t456.5 170.5q227 0 353 -120.5t126 -305.5q0 -72 -24 -184h-705q14 -72 21 -84q61 -125 266 -125q174 0 381 68l-273 -293q-121 -29 -241 -29q-127 0 -225.5 34t-157 85t-95 119.5t-50 129t-13.5 122.5zM518 623h326q2 10 2 32q0 76 -40 110 t-91 34q-131 0 -197 -176zM551 1092l76 319l467 313l-70 -348z" />
<glyph unicode="&#xea;" d="M90 459q0 242 180.5 412.5t456.5 170.5q227 0 353 -120.5t126 -305.5q0 -72 -24 -184h-705q14 -72 21 -84q61 -125 266 -125q174 0 381 68l-273 -293q-121 -29 -241 -29q-127 0 -225.5 34t-157 85t-95 119.5t-50 129t-13.5 122.5zM410 1096l63 278l361 260l280 -278 l-65 -260l-267 233zM518 623h326q2 10 2 32q0 76 -40 110t-91 34q-131 0 -197 -176z" />
<glyph unicode="&#xeb;" d="M90 459q0 242 180.5 412.5t456.5 170.5q227 0 353 -120.5t126 -305.5q0 -72 -24 -184h-705q14 -72 21 -84q61 -125 266 -125q174 0 381 68l-273 -293q-121 -29 -241 -29q-127 0 -225.5 34t-157 85t-95 119.5t-50 129t-13.5 122.5zM379 1341q0 66 45 114t115 48 q72 0 117.5 -46t45.5 -115.5t-48 -115.5t-115 -46q-70 0 -115 45.5t-45 115.5zM518 623h326q2 10 2 32q0 76 -40 110t-91 34q-131 0 -197 -176zM809 1341q0 66 45 114t115 48q72 0 118 -46t46 -115.5t-48.5 -115.5t-115.5 -46q-70 0 -115 45.5t-45 115.5z" />
<glyph unicode="&#xec;" horiz-adv-x="555" d="M-10 0l272 1012h395l-272 -1012h-395zM205 1407l98 272l469 -354l-94 -238z" />
<glyph unicode="&#xed;" horiz-adv-x="555" d="M-10 0l272 1012h395l-272 -1012h-395zM268 1092l76 319l467 313l-70 -348z" />
<glyph unicode="&#xee;" horiz-adv-x="555" d="M-10 0l272 1012h395l-272 -1012h-395zM145 1096l64 278l360 260l281 -278l-66 -260l-266 233z" />
<glyph unicode="&#xef;" horiz-adv-x="555" d="M-10 0l272 1012h395l-272 -1012h-395zM117 1341q0 66 45 114t114 48q72 0 118 -46t46 -115.5t-48 -115.5t-116 -46q-70 0 -114.5 45.5t-44.5 115.5zM547 1341q0 66 45 114t115 48q72 0 117.5 -46t45.5 -115.5t-48 -115.5t-115 -46q-70 0 -115 45.5t-45 115.5z" />
<glyph unicode="&#xf0;" horiz-adv-x="1236" d="M94 436q0 238 167 422t411 184q127 0 225 -59q-2 29 -11 68t-18.5 68.5t-9.5 31.5l-299 -70l-57 150l289 69q-25 49 -60 97l356 100q31 -43 70 -111l150 35l57 -153l-143 -33q59 -205 59 -408q0 -111 -18.5 -221t-65.5 -228t-119.5 -206t-190.5 -145.5t-268 -57.5 q-223 0 -373.5 118t-150.5 349zM481 395q0 -168 131 -168q104 0 168 129t64 250q0 178 -131 178q-61 0 -110.5 -47t-73 -115.5t-36 -128t-12.5 -98.5z" />
<glyph unicode="&#xf1;" horiz-adv-x="1236" d="M-8 0l270 1012h393l-63 -232l237 234q100 29 180.5 28.5t137.5 -28t81.5 -68.5t34 -73.5t9.5 -61.5q0 -45 -25 -137l-182 -674h-389l137 508q31 111 31 151q0 39 -25.5 74t-89.5 35q-66 0 -156 -55l-190 -713h-391zM455 1198l59 234q88 76 170 75q53 0 139 -37l90 -38 q51 -20 107 -21q78 1 170 62l-60 -234q-76 -74 -153 -74q-66 0 -121 25l-96 41q-66 29 -127 29q-88 0 -178 -62z" />
<glyph unicode="&#xf2;" horiz-adv-x="1236" d="M94 436q0 55 12.5 117.5t43 139.5t96 149.5t157.5 124.5q133 76 312 75q242 0 381 -137t139 -342q0 -90 -32 -185t-98.5 -190.5t-192.5 -157t-291 -61.5q-229 0 -378 120t-149 347zM481 387q0 -160 135 -160q63 0 111.5 49.5t72 119t35 126.5t11.5 94q0 90 -39 129 t-94 39q-72 0 -128.5 -71.5t-80 -159.5t-23.5 -166zM502 1407l98 272l469 -354l-94 -238z" />
<glyph unicode="&#xf3;" horiz-adv-x="1236" d="M94 436q0 55 12.5 117.5t43 139.5t96 149.5t157.5 124.5q133 76 312 75q242 0 381 -137t139 -342q0 -90 -32 -185t-98.5 -190.5t-192.5 -157t-291 -61.5q-229 0 -378 120t-149 347zM481 387q0 -160 135 -160q63 0 111.5 49.5t72 119t35 126.5t11.5 94q0 90 -39 129 t-94 39q-72 0 -128.5 -71.5t-80 -159.5t-23.5 -166zM575 1092l76 319l467 313l-69 -348z" />
<glyph unicode="&#xf4;" horiz-adv-x="1236" d="M94 436q0 55 12.5 117.5t43 139.5t96 149.5t157.5 124.5q133 76 312 75q242 0 381 -137t139 -342q0 -90 -32 -185t-98.5 -190.5t-192.5 -157t-291 -61.5q-229 0 -378 120t-149 347zM428 1096l64 278l360 260l281 -278l-66 -260l-266 233zM481 387q0 -160 135 -160 q63 0 111.5 49.5t72 119t35 126.5t11.5 94q0 90 -39 129t-94 39q-72 0 -128.5 -71.5t-80 -159.5t-23.5 -166z" />
<glyph unicode="&#xf5;" horiz-adv-x="1236" d="M94 436q0 55 12.5 117.5t43 139.5t96 149.5t157.5 124.5q133 76 312 75q242 0 381 -137t139 -342q0 -90 -32 -185t-98.5 -190.5t-192.5 -157t-291 -61.5q-229 0 -378 120t-149 347zM477 1198l60 234q88 76 170 75q53 0 139 -37l90 -38q51 -20 106 -21q78 1 170 62 l-59 -234q-76 -74 -154 -74q-66 0 -120 25l-97 41q-66 29 -127 29q-90 0 -178 -62zM481 387q0 -160 135 -160q63 0 111.5 49.5t72 119t35 126.5t11.5 94q0 90 -39 129t-94 39q-72 0 -128.5 -71.5t-80 -159.5t-23.5 -166z" />
<glyph unicode="&#xf6;" horiz-adv-x="1236" d="M94 436q0 55 12.5 117.5t43 139.5t96 149.5t157.5 124.5q133 76 312 75q242 0 381 -137t139 -342q0 -90 -32 -185t-98.5 -190.5t-192.5 -157t-291 -61.5q-229 0 -378 120t-149 347zM426 1341q0 66 45 114t115 48q72 0 118 -46t46 -115.5t-48.5 -115.5t-115.5 -46 q-70 0 -115 45.5t-45 115.5zM481 387q0 -160 135 -160q63 0 111.5 49.5t72 119t35 126.5t11.5 94q0 90 -39 129t-94 39q-72 0 -128.5 -71.5t-80 -159.5t-23.5 -166zM856 1341q0 66 45 114t115 48q72 0 118 -46t46 -115.5t-48.5 -115.5t-115.5 -46q-70 0 -115 45.5t-45 115.5 z" />
<glyph unicode="&#xf7;" horiz-adv-x="1482" d="M209 514l90 336h1157l-90 -336h-1157zM500 237.5q0 90.5 59 151t149.5 60.5t152 -63t61.5 -153q0 -86 -61.5 -145t-149.5 -59q-90 0 -150.5 59t-60.5 149.5zM741 1124q0 90 58.5 149.5t150.5 59.5q90 0 150.5 -60.5t60.5 -150.5t-59.5 -149.5t-149.5 -59.5t-150.5 60.5 t-60.5 150.5z" />
<glyph unicode="&#xf8;" horiz-adv-x="1236" d="M-23 115l164 121q-47 78 -47 215q0 143 64.5 272t179.5 209q158 111 369 110q92 0 170.5 -22.5t113.5 -43t84 -56.5l170 124l103 -145l-160 -121q47 -109 47 -209q0 -193 -98 -340q-174 -260 -529 -260q-246 0 -356 125l-170 -125zM467 475l371 275q-49 82 -133 81 q-70 0 -146 -81.5t-92 -274.5zM496 270q37 -82 129 -82q104 0 164.5 117t68.5 234z" />
<glyph unicode="&#xf9;" horiz-adv-x="1236" d="M66 215q0 57 22 143l174 654h400l-148 -553q-23 -82 -22 -121q0 -16 6 -35.5t30.5 -41t65.5 -21.5q70 0 154 55l192 717h397l-270 -1012h-399l61 231l-227 -237q-82 -25 -162 -25q-104 0 -189 60.5t-85 185.5zM483 1407l99 272l469 -354l-95 -238z" />
<glyph unicode="&#xfa;" horiz-adv-x="1236" d="M66 215q0 57 22 143l174 654h400l-148 -553q-23 -82 -22 -121q0 -16 6 -35.5t30.5 -41t65.5 -21.5q70 0 154 55l192 717h397l-270 -1012h-399l61 231l-227 -237q-82 -25 -162 -25q-104 0 -189 60.5t-85 185.5zM655 1092l76 319l467 313l-70 -348z" />
<glyph unicode="&#xfb;" horiz-adv-x="1236" d="M66 215q0 57 22 143l174 654h400l-148 -553q-23 -82 -22 -121q0 -16 6 -35.5t30.5 -41t65.5 -21.5q70 0 154 55l192 717h397l-270 -1012h-399l61 231l-227 -237q-82 -25 -162 -25q-104 0 -189 60.5t-85 185.5zM504 1096l63 278l361 260l280 -278l-65 -260l-266 233z" />
<glyph unicode="&#xfc;" horiz-adv-x="1236" d="M66 215q0 57 22 143l174 654h400l-148 -553q-23 -82 -22 -121q0 -16 6 -35.5t30.5 -41t65.5 -21.5q70 0 154 55l192 717h397l-270 -1012h-399l61 231l-227 -237q-82 -25 -162 -25q-104 0 -189 60.5t-85 185.5zM479 1341q0 66 45 114t115 48q72 0 118 -46t46 -115.5 t-48 -115.5t-116 -46q-70 0 -115 45.5t-45 115.5zM909 1341q0 66 45 114t115 48q72 0 118 -46t46 -115.5t-48 -115.5t-116 -46q-70 0 -115 45.5t-45 115.5z" />
<glyph unicode="&#xfd;" d="M-168 -379l182 258q43 -10 86 -10q57 0 99.5 22.5t55.5 42t19 37.5l11 31l-107 1010h393l21 -623l334 623h452l-766 -1135q-49 -72 -87 -115t-98 -91t-142 -70.5t-189 -22.5q-131 0 -264 43zM674 1092l76 319l467 313l-70 -348z" />
<glyph unicode="&#xfe;" d="M-121 -422l500 1868h389l-176 -655l211 221q63 25 110 24q53 0 103.5 -16t97.5 -53t76 -105.5t29 -163t-22.5 -190.5t-75 -194.5t-128 -174.5t-192.5 -123t-258 -47q-113 0 -164 21l-111 -412h-389zM449 252q49 -16 86 -16q74 0 127 40q72 55 114.5 167t42.5 190 q0 80 -33.5 115.5t-87.5 35.5q-61 0 -120 -47z" />
<glyph unicode="&#xff;" d="M-168 -379l182 258q43 -10 86 -10q57 0 99.5 22.5t55.5 42t19 37.5l11 31l-107 1010h393l21 -623l334 623h452l-766 -1135q-49 -72 -87 -115t-98 -91t-142 -70.5t-189 -22.5q-131 0 -264 43zM426 1341q0 66 45 114t115 48q72 0 118 -46t46 -115.5t-48.5 -115.5 t-115.5 -46q-70 0 -115 45.5t-45 115.5zM856 1341q0 66 45 114t115 48q72 0 118 -46t46 -115.5t-48.5 -115.5t-115.5 -46q-70 0 -115 45.5t-45 115.5z" />
<glyph unicode="&#x152;" horiz-adv-x="2217" d="M156 614q0 182 69 347q106 248 323.5 388t487.5 140q98 0 344 -43h990l-93 -342h-542l-58 -209h463l-88 -334h-463l-59 -221h686l-315 -340h-766q-158 -43 -297 -43q-299 0 -490.5 179t-191.5 478zM606 621q0 -141 75 -230.5t216 -89.5q104 0 190 49l201 754 q-131 55 -223 55q-141 0 -249.5 -86t-159 -207t-50.5 -245z" />
<glyph unicode="&#x153;" horiz-adv-x="1921" d="M98 444q0 244 152 410q174 188 455 188q217 0 362 -112q160 113 375 112q135 0 234.5 -39.5t152.5 -106.5t77.5 -137.5t24.5 -146.5q0 -72 -24 -178h-697q10 -213 314 -213q135 0 346 72l-271 -293q-104 -31 -225 -31q-258 0 -397 109q-152 -109 -363 -109 q-96 0 -183 25.5t-164 78t-123 148.5t-46 223zM481 389q0 -45 13.5 -79t30 -49t40 -23.5t32.5 -9.5t19 -1q68 0 119 51.5t73.5 124t33 129t10.5 89.5q0 82 -41 121.5t-96 39.5q-61 0 -110.5 -45t-74 -111.5t-37 -128t-12.5 -108.5zM1249 625h320q4 16 4 39q0 76 -40 105.5 t-89 29.5q-127 0 -195 -174z" />
<glyph unicode="&#x178;" horiz-adv-x="1449" d="M279 1446h462l129 -555l381 555h525l-783 -959l-131 -487h-454l141 526zM641 1731q0 68 47 119t117 51q72 0 119 -48.5t47 -122t-48.5 -121.5t-118 -48t-116.5 49t-47 121zM1096 1731q0 68 46 119t115 51q72 0 120 -48.5t48 -122t-49 -121.5t-118.5 -48t-115.5 49 t-46 121z" />
<glyph unicode="&#x2c6;" horiz-adv-x="555" d="M-72 1096l64 278l360 260l281 -278l-66 -260l-266 233z" />
<glyph unicode="&#x2dc;" horiz-adv-x="557" d="M-90 1198l59 234q88 76 170 75q53 0 140 -37l90 -38q51 -20 106 -21q78 1 170 62l-59 -234q-76 -74 -154 -74q-66 0 -121 25l-96 41q-66 29 -127 29q-90 0 -178 -62z" />
<glyph unicode="&#x2000;" horiz-adv-x="1002" />
<glyph unicode="&#x2001;" horiz-adv-x="2005" />
<glyph unicode="&#x2002;" horiz-adv-x="1002" />
<glyph unicode="&#x2003;" horiz-adv-x="2005" />
<glyph unicode="&#x2004;" horiz-adv-x="668" />
<glyph unicode="&#x2005;" horiz-adv-x="501" />
<glyph unicode="&#x2006;" horiz-adv-x="334" />
<glyph unicode="&#x2007;" horiz-adv-x="334" />
<glyph unicode="&#x2008;" horiz-adv-x="250" />
<glyph unicode="&#x2009;" horiz-adv-x="401" />
<glyph unicode="&#x200a;" horiz-adv-x="111" />
<glyph unicode="&#x2010;" horiz-adv-x="894" d="M33 403l266 273h672l-269 -273h-669z" />
<glyph unicode="&#x2011;" horiz-adv-x="894" d="M33 403l266 273h672l-269 -273h-669z" />
<glyph unicode="&#x2012;" horiz-adv-x="894" d="M33 403l266 273h672l-269 -273h-669z" />
<glyph unicode="&#x2013;" horiz-adv-x="1280" d="M33 403l266 273h1057l-269 -273h-1054z" />
<glyph unicode="&#x2014;" horiz-adv-x="1669" d="M33 403l266 273h1446l-268 -273h-1444z" />
<glyph unicode="&#x2018;" horiz-adv-x="512" d="M172 885l410 561h192l-282 -561h-320z" />
<glyph unicode="&#x2019;" horiz-adv-x="512" d="M184 885l283 561h319l-411 -561h-191z" />
<glyph unicode="&#x201a;" horiz-adv-x="512" d="M-115 -217l283 561h319l-409 -561h-193z" />
<glyph unicode="&#x201c;" horiz-adv-x="980" d="M176 885l410 561h194l-284 -561h-320zM639 885l410 561h192l-283 -561h-319z" />
<glyph unicode="&#x201d;" horiz-adv-x="980" d="M186 885l283 561h319l-409 -561h-193zM647 885l285 561h319l-411 -561h-193z" />
<glyph unicode="&#x201e;" horiz-adv-x="980" d="M-117 -217l281 561h319l-409 -561h-191zM342 -217l285 561h319l-409 -561h-195z" />
<glyph unicode="&#x2022;" horiz-adv-x="681" d="M121 721q0 133 93 225t228 92q131 0 221.5 -90t90.5 -223q0 -143 -87 -233.5t-227 -90.5q-133 0 -226 93.5t-93 226.5z" />
<glyph unicode="&#x2026;" horiz-adv-x="2048" d="M119 143q0 72 47 120t118.5 48t119 -48t47.5 -119.5t-47.5 -120t-117 -48.5t-118.5 49.5t-49 118.5zM803 143.5q0 71.5 47 119.5t117 48q72 0 120 -48t48 -119.5t-47.5 -120t-118.5 -48.5q-70 0 -118 48.5t-48 120zM1485 143.5q0 71.5 47 119.5t117 48q72 0 120 -48 t48 -119.5t-47.5 -120t-118.5 -48.5q-70 0 -118 48.5t-48 120z" />
<glyph unicode="&#x202f;" horiz-adv-x="401" />
<glyph unicode="&#x2039;" horiz-adv-x="598" d="M88 621l234 290h340l-246 -309l155 -336h-319z" />
<glyph unicode="&#x203a;" horiz-adv-x="598" d="M68 266l247 309l-155 336h317l164 -354l-231 -291h-342z" />
<glyph unicode="&#x205f;" horiz-adv-x="501" />
<glyph unicode="&#x20ac;" horiz-adv-x="1445" d="M141 446l58 205h145q10 70 21 107h-146l55 207h150q203 453 782 452q203 1 342 -69l-84 -314q-123 68 -272 68q-223 0 -307 -137h413l-55 -207h-442q-16 -41 -27 -107h443l-58 -205h-391q12 -96 99 -131.5t231 -35.5q182 0 368 83l-268 -364q-115 -25 -270 -25 q-254 0 -420 120t-174 353h-193z" />
<glyph unicode="&#x2122;" horiz-adv-x="1515" d="M289 1272l47 174h573l-47 -174h-178l-137 -506h-215l135 506h-178zM729 766l266 680h213l41 -289l191 289h215l-76 -680h-203l45 387l-258 -389h-18l-66 385l-139 -383h-211z" />
<glyph unicode="&#xe000;" horiz-adv-x="1013" d="M0 0v1014h1014v-1014h-1014z" />
<glyph unicode="&#xfb01;" horiz-adv-x="1323" d="M53 0l197 725h-154l230 287l22 86q57 215 196.5 297t340.5 82q106 0 211 -29l-74 -281q-66 31 -117 31q-137 0 -182 -162l-6 -24h211l-76 -287h-211l-195 -725h-393zM758 0l272 1012h395l-272 -1012h-395zM1094 1305q0 68 56 124t150 56q86 0 142.5 -50t56.5 -124 q0 -72 -53 -125t-146 -53q-90 0 -148 51t-58 121z" />
<glyph unicode="&#xfb02;" horiz-adv-x="1323" d="M53 0l197 725h-154l230 287l22 86q57 215 196.5 297t340.5 82q106 0 211 -29l-74 -281q-66 31 -117 31q-137 0 -182 -162l-6 -24h211l-76 -287h-211l-195 -725h-393zM756 0l387 1446h397l-387 -1446h-397z" />
</font>
</defs>
</svg>
