<?xml version="1.0" standalone="no"?>
<!DOCTYPE svg PUBLIC "-//W3C//DTD SVG 1.1//EN" "http://www.w3.org/Graphics/SVG/1.1/DTD/svg11.dtd" >
<svg xmlns="http://www.w3.org/2000/svg">
<metadata></metadata>
<defs>
<font id="delta_jaegermedium" horiz-adv-x="1193" >
<font-face units-per-em="2048" ascent="1638" descent="-410" />
<missing-glyph horiz-adv-x="598" />
<glyph horiz-adv-x="2048" />
<glyph horiz-adv-x="2048" />
<glyph unicode="&#xd;" horiz-adv-x="681" />
<glyph unicode=" "  horiz-adv-x="598" />
<glyph unicode="&#x09;" horiz-adv-x="598" />
<glyph unicode="&#xa0;" horiz-adv-x="598" />
<glyph unicode="!" horiz-adv-x="598" d="M117 154q0 68 47 121t127 53q76 0 124 -51t48 -123q0 -74 -49 -123t-123 -49q-76 0 -125 51t-49 121zM123 1446h340l-31 -903l-276 -135q-23 688 -33 1038z" />
<glyph unicode="&#x22;" horiz-adv-x="727" d="M55 1522h258l-80 -623h-94zM414 1522h258l-82 -623h-94z" />
<glyph unicode="#" horiz-adv-x="1368" d="M74 397v236h266l27 198h-240v240h272l52 375h245l-53 -375h180l51 375h242l-49 -375h227v-240h-262l-26 -198h239v-236h-272l-55 -397h-246l59 397h-180l-57 -397h-242l53 397h-231zM584 633h178l29 198h-179z" />
<glyph unicode="$" horiz-adv-x="1110" d="M98 61v312q59 -51 164 -91t203 -40q90 0 142 36.5t52 106.5q0 57 -36.5 97t-122.5 75l-121 49q-123 49 -201 144.5t-78 226.5q0 147 85 261t257 157v274h244v-266q145 -14 281 -76v-299q-139 119 -312 119q-96 0 -144 -39t-48 -96q0 -49 36 -84t113 -72l121 -55 q145 -66 223 -156t78 -231q0 -137 -85 -256t-263 -158v-276h-244v264q-203 10 -344 73z" />
<glyph unicode="%" horiz-adv-x="1961" d="M47 950q0 90 17.5 168t56.5 147.5t114.5 109.5t182.5 40q197 0 286 -127t89 -340q0 -90 -16.5 -168t-56.5 -149.5t-118 -112.5t-186 -41q-369 0 -369 473zM301 956q0 -150 24.5 -221t96.5 -71q68 0 92.5 71.5t24.5 218.5q0 274 -117 275q-121 -1 -121 -273zM524 0 l690 1399h222l-691 -1399h-221zM1169 457q0 90 17.5 167.5t56.5 147.5t115 110t182 40q197 0 286 -127t89 -340q0 -90 -16.5 -168t-56.5 -149.5t-117.5 -112.5t-186.5 -41q-369 0 -369 473zM1423 463q0 -150 25 -221.5t96 -71.5q68 0 92.5 71.5t24.5 219.5q0 274 -117 274 q-121 0 -121 -272z" />
<glyph unicode="&#x26;" horiz-adv-x="1536" d="M43 410q0 154 92 265t246 159q-102 117 -102 260q0 94 47 178q49 86 155.5 148.5t276.5 62.5q172 0 295 -78q170 -111 170 -301q0 -131 -80 -227.5t-201 -145.5l594 -534l-229 -250l-342 303l-115 -234q-152 -53 -301 -53q-207 0 -356.5 121t-149.5 326zM403 446 q0 -102 82 -156t193 -54q142 0 248 53l-367 342q-68 -16 -112 -67.5t-44 -117.5zM629 1106q-1 -103 110 -193q176 63 176 197q0 63 -37.5 105t-101 42t-105.5 -43t-42 -108z" />
<glyph unicode="'" horiz-adv-x="370" d="M55 1522h258l-80 -623h-94z" />
<glyph unicode="(" horiz-adv-x="626" d="M55 643q0 258 88 509t238 421h264q-272 -432 -272 -928q0 -532 274 -940h-266q-156 180 -241 426t-85 512z" />
<glyph unicode=")" horiz-adv-x="626" d="M-20 1571h266q156 -180 240.5 -427t84.5 -509q0 -260 -88 -511t-237 -419h-264q272 440 272 928q0 528 -274 938z" />
<glyph unicode="*" horiz-adv-x="811" d="M37 1116l63 187l203 -68v211h199v-211l205 72l67 -187l-207 -73l125 -173l-155 -118l-131 178l-125 -178l-162 118l125 173z" />
<glyph unicode="+" horiz-adv-x="1482" d="M188 530v269h381v411h342v-411h383v-269h-383v-417h-342v417h-381z" />
<glyph unicode="," horiz-adv-x="512" d="M-41 -285l217 576h318l-330 -576h-205z" />
<glyph unicode="-" horiz-adv-x="782" d="M4 428l158 225h616l-157 -225h-617z" />
<glyph unicode="." horiz-adv-x="512" d="M82 153.5q0 69.5 48 122t124 52.5q80 0 127 -52t47 -122q0 -74 -49 -123t-123 -49q-76 0 -125 51t-49 120.5z" />
<glyph unicode="/" horiz-adv-x="811" d="M0 0l498 1446h313l-494 -1446h-317z" />
<glyph unicode="0" horiz-adv-x="1280" d="M72 698q0 156 32.5 285t99 230.5t178.5 159t259 57.5q111 0 200 -31t149.5 -85t104.5 -123t67.5 -153t34.5 -166t11 -170q0 -137 -26.5 -257.5t-87 -232.5t-177 -177.5t-280.5 -65.5q-281 0 -423 194.5t-142 534.5zM442 692q0 -455 197 -454.5t197 483.5q0 442 -197 442 t-197 -471z" />
<glyph unicode="1" horiz-adv-x="1280" d="M281 872v287l577 262v-1421h-358v975z" />
<glyph unicode="2" horiz-adv-x="1280" d="M150 0v266l460 508q80 86 80 182q0 66 -43 125.5t-151 59.5q-154 0 -316 -170v342q219 117 416 117q297 0 420 -213q55 -94 55 -213q0 -182 -178 -383l-309 -351h604l-193 -270h-845z" />
<glyph unicode="3" horiz-adv-x="1280" d="M166 61v324q84 -74 180 -104.5t160 -30.5q109 0 159 55t50 121q0 186 -289 186h-111l164 238q63 0 120.5 36t57.5 115q0 14 -4 32t-18 46.5t-52 47t-96 18.5q-154 0 -294 -150v324q178 111 389 111q195 0 318.5 -100.5t123.5 -266.5q0 -209 -219 -307q133 -25 215 -119 t82 -229q0 -203 -158 -321t-362 -118q-213 0 -416 92z" />
<glyph unicode="4" horiz-adv-x="1280" d="M41 311v152l553 936h436v-826h242l-182 -262h-60v-311h-342v311h-647zM426 573h262v480z" />
<glyph unicode="5" horiz-adv-x="1280" d="M147 63v320q180 -133 365 -133q127 0 183.5 66.5t56.5 142.5q0 31 -11.5 63.5t-46.5 77.5t-121 73.5t-213 28.5q-63 0 -178 -12l117 709h782v-264h-483l-39 -222q367 0 502 -211q74 -111 74 -247q0 -231 -166 -358.5t-393.5 -127.5t-428.5 94z" />
<glyph unicode="6" horiz-adv-x="1280" d="M113 549q0 358 249 647q96 115 213 203h519q-319 -168 -467 -410q-23 -37 -56 -102q109 51 201 51q188 0 310 -131t122 -318q0 -244 -154.5 -382t-383.5 -138q-104 0 -199.5 34t-176.5 100.5t-129 182t-48 263.5zM477 467q0 -119 54.5 -174t125.5 -55q76 0 130.5 59 t54.5 180q0 78 -21.5 130t-56.5 71.5t-56.5 26t-43.5 6.5q-63 0 -105.5 -32t-58 -82t-19.5 -77.5t-4 -52.5z" />
<glyph unicode="7" horiz-adv-x="1280" d="M170 1137v262h1038l-583 -1399h-383l479 1137h-551z" />
<glyph unicode="8" horiz-adv-x="1280" d="M94 385q0 84 29 150.5t75 106.5t89 62.5t86 32.5q-233 84 -234 310q0 188 150.5 285.5t351.5 97.5q203 0 352.5 -96.5t149.5 -291.5q0 -111 -65.5 -195.5t-168.5 -109.5q113 -27 196 -116t83 -236q0 -55 -23.5 -118.5t-79 -134.5t-171 -117t-275.5 -46q-94 0 -184 22.5 t-174 67.5t-135.5 130t-51.5 196zM449 424q0 -70 51 -129t141 -59q86 0 139.5 52t53.5 138q0 82 -54.5 138.5t-138.5 56.5q-72 0 -132 -50.5t-60 -146.5zM481 1001q0 -72 45 -117.5t117 -45.5t116 46t44 117.5t-44 116.5t-114 45q-72 0 -118 -44t-46 -118z" />
<glyph unicode="9" horiz-adv-x="1280" d="M74 913q0 240 154.5 378.5t385.5 138.5q102 0 196.5 -33t176.5 -99.5t131 -182.5t49 -265q0 -338 -221 -614q-105 -134 -244 -236h-518q242 125 398 313q78 92 127 199q-113 -51 -197 -51q-176 0 -307 120.5t-131 331.5zM436 915q0 -121 53.5 -174t126.5 -53q23 0 47.5 7 t59.5 28.5t57.5 75t22.5 131.5q0 121 -55.5 176t-126.5 55q-76 0 -130.5 -59.5t-54.5 -186.5z" />
<glyph unicode=":" horiz-adv-x="598" d="M117 153.5q0 69.5 48 122t124 52.5q80 0 127 -52t47 -122q0 -74 -49 -123t-123 -49q-76 0 -125 51t-49 120.5zM117 856q0 70 48 122t124 52q80 0 127 -52t47 -122q0 -74 -49 -123t-123 -49q-76 0 -125 51t-49 121z" />
<glyph unicode=";" horiz-adv-x="598" d="M-57 -285l215 576h317l-330 -576h-202zM152 856q0 70 48 122t124 52q78 0 126 -51t48 -123q0 -74 -49.5 -123t-122.5 -49q-76 0 -125 51t-49 121z" />
<glyph unicode="&#x3c;" horiz-adv-x="1482" d="M229 528v312l953 454v-319l-641 -281l641 -293v-335z" />
<glyph unicode="=" horiz-adv-x="1482" d="M205 258v289h1075v-289h-1075zM205 721v289h1075v-289h-1075z" />
<glyph unicode="&#x3e;" horiz-adv-x="1482" d="M291 66v319l641 281l-641 290v336l952 -461v-313z" />
<glyph unicode="?" horiz-adv-x="894" d="M59 1092v299q190 86 367 86q127 0 222 -39t143.5 -100.5t71 -124t22.5 -123.5q0 -143 -91.5 -240.5t-234.5 -112.5v-188l-311 -143v483q291 0 291 174q0 61 -50.5 102t-130.5 41q-141 0 -299 -114zM229 153.5q0 69.5 48.5 122t123.5 52.5q78 0 126 -51t48 -123 q0 -74 -49 -123t-123 -49q-76 0 -125 51t-49 120.5z" />
<glyph unicode="@" horiz-adv-x="1763" d="M80 524q0 401 267 668.5t669 267.5q305 0 484 -165t179 -445q0 -276 -151.5 -489.5t-349.5 -213.5q-170 0 -201 170l-137 -159q-25 -4 -58 -4q-147 0 -231 91t-84 253q0 244 153.5 408.5t378.5 164.5q162 0 328 -72l-90 -397q-33 -143 -33 -205q0 -59 45 -59q31 0 76 51 q70 86 113 208t43 237q0 219 -129 340.5t-363 121.5q-303 0 -503.5 -216t-200.5 -539q0 -279 181 -446t482 -167q350 0 649 242l-73 -258q-297 -164 -623 -164q-373 0 -597 212t-224 564zM702 500q0 -84 36 -132.5t100 -48.5q57 1 133 58l108 502q-49 18 -98 18 q-121 0 -200 -112.5t-79 -284.5z" />
<glyph unicode="A" horiz-adv-x="1492" d="M0 0l569 1446h367l557 -1446h-399l-99 289h-516l-104 -289h-375zM557 512h363l-177 526z" />
<glyph unicode="B" horiz-adv-x="1280" d="M109 0v1446h598q215 0 342 -99.5t127 -281.5q0 -201 -220 -307q117 -39 194 -124t77 -222q0 -156 -124 -284t-368 -128h-626zM471 264h129q252 0 252 191q0 106 -77 146t-212 40h-92v-377zM471 672l131 192h19q94 0 150 43t56 121q0 82 -58 116t-171 34h-127v-506z" />
<glyph unicode="C" horiz-adv-x="1366" d="M63 707q0 332 229.5 554t618.5 222q213 -1 389 -60v-321q-170 108 -341 108h-3q-219 0 -359 -134t-140 -353q0 -203 136 -349.5t398 -146.5q197 0 375 78l-176 -303q-137 -39 -322 -39q-145 0 -283.5 44t-257 130t-191.5 233.5t-73 336.5z" />
<glyph unicode="D" horiz-adv-x="1536" d="M109 0v1446h610q203 0 355.5 -63.5t235.5 -169t123 -225.5t40 -253q0 -315 -199 -525t-561 -210h-604zM483 279h135q221 0 338 121.5t117 322.5q0 199 -116.5 320.5t-344.5 121.5h-129v-886z" />
<glyph unicode="E" horiz-adv-x="1150" d="M109 0v1446h938v-285h-562v-278h482v-281h-482v-315h670l-164 -287h-882z" />
<glyph unicode="F" horiz-adv-x="1067" d="M109 0v1446h958v-283h-580v-311h494v-285h-494v-567h-378z" />
<glyph unicode="G" horiz-adv-x="1622" d="M61 715q0 342 247 555t644 213q233 0 475 -76v-324q-207 129 -432 129q-227 0 -385.5 -132t-158.5 -365q0 -70 17 -137.5t56 -132t96.5 -113.5t142.5 -80t189 -31q100 0 219 43q4 240 5 275h-342l147 260h547l-6 -697q-322 -139 -623 -139q-129 0 -248 26.5t-227.5 85 t-188 144.5t-127 213t-47.5 283z" />
<glyph unicode="H" horiz-adv-x="1536" d="M109 0v1446h376v-541h564v541h378v-1446h-378v616h-564v-616h-376z" />
<glyph unicode="I" horiz-adv-x="598" d="M109 0v1446h378v-1446h-378z" />
<glyph unicode="J" horiz-adv-x="894" d="M-10 14l141 265q70 -29 121 -29q55 0 89 23.5t48 72.5t18.5 91t4.5 110v899h376v-979q0 -145 -33.5 -228t-97.5 -147q-131 -129 -374 -129q-145 0 -293 51z" />
<glyph unicode="K" horiz-adv-x="1449" d="M109 0v1446h376v-662l482 662h424l-498 -658l590 -788h-443l-555 745v-745h-376z" />
<glyph unicode="L" horiz-adv-x="1150" d="M109 0v1446h378v-1157h666l-168 -289h-876z" />
<glyph unicode="M" horiz-adv-x="1961" d="M61 0l164 1446h379l375 -803l379 803h375l170 -1446h-371l-78 940l-450 -940h-54l-444 944l-80 -944h-365z" />
<glyph unicode="N" horiz-adv-x="1622" d="M109 0v1446h331l707 -784v784h364v-1446h-243l-793 879v-879h-366z" />
<glyph unicode="O" horiz-adv-x="1705" d="M63 723q0 143 48.5 275t141.5 243t251 176.5t356 65.5q139 0 272.5 -43t250 -130t188 -236.5t71.5 -342.5q0 -141 -47 -274t-138 -245t-245.5 -180.5t-349.5 -68.5q-379 0 -589 218t-210 542zM463 723q0 -190 101.5 -331.5t291.5 -141.5q178 0 283.5 139t105.5 322 q0 82 -19.5 162.5t-60.5 157.5t-120.5 125t-188.5 48q-160 0 -276.5 -126t-116.5 -355z" />
<glyph unicode="P" horiz-adv-x="1280" d="M109 0v1446h624q213 0 358.5 -109.5t145.5 -322.5q0 -39 -7 -81t-40 -110.5t-89.5 -120t-168 -90.5t-260.5 -39h-187v-573h-376zM485 608l150 211q127 0 175 58.5t48 123.5q0 176 -227 177h-146v-570z" />
<glyph unicode="Q" horiz-adv-x="1705" d="M63 727q0 201 89.5 370t273.5 277.5t432 108.5q150 0 287 -47t250.5 -136.5t181.5 -238t68 -334.5q0 -147 -49.5 -281.5t-127.5 -209.5l213 -213l-233 -236l-246 248q-164 -72 -350 -72q-152 0 -292 50t-251.5 143.5t-178.5 241t-67 329.5zM467 725q0 -209 108.5 -342 t282.5 -133q178 0 282.5 140t104.5 312q0 209 -98 355.5t-289 146.5q-178 0 -284.5 -139t-106.5 -340z" />
<glyph unicode="R" horiz-adv-x="1409" d="M109 0v1446h636q221 0 351.5 -107.5t130.5 -296.5q0 -227 -221 -362l417 -680h-413l-369 610h-164v-610h-368zM477 639l144 203h20q102 0 158.5 46t56.5 130q0 78 -53 120t-154 42h-172v-541z" />
<glyph unicode="S" horiz-adv-x="1110" d="M88 51v324q66 -57 175.5 -100.5t203.5 -43.5q63 0 109.5 19.5t66 50.5t27.5 55.5t8 46.5q0 115 -166 181l-82 32q-338 135 -338 424q0 31 8.5 74t41 111.5t85 123t154.5 94.5t235 40q195 0 369 -84v-309q-164 129 -328 129q-100 0 -146 -48.5t-46 -107.5q0 -47 30.5 -85 t62.5 -55.5t83 -39.5l104 -43q311 -127 312 -414q0 -109 -49 -203q-45 -86 -118 -144.5t-153 -81t-129 -28.5t-96 -6q-219 0 -424 88z" />
<glyph unicode="T" d="M-4 1161v285h1202v-285h-410v-1161h-378v1161h-414z" />
<glyph unicode="U" horiz-adv-x="1536" d="M109 532v914h376v-821q0 -86 10.5 -146.5t38 -120t87 -90t151.5 -30.5q90 0 150.5 31.5t86 89t35 108.5t9.5 117v862h374v-868q0 -221 -67 -347q-145 -268 -596 -268q-303 0 -473 137q-182 150 -182 432z" />
<glyph unicode="V" horiz-adv-x="1492" d="M0 1446h412l346 -995l356 995h379l-584 -1446h-334z" />
<glyph unicode="W" horiz-adv-x="2048" d="M0 1446h375l211 -965l430 965h47l410 -959l202 959h373l-348 -1446h-346l-322 750l-327 -750h-343z" />
<glyph unicode="X" horiz-adv-x="1409" d="M0 0l506 750l-467 696h420l250 -391l252 391h419l-471 -690l500 -756h-424l-283 446l-292 -446h-410z" />
<glyph unicode="Y" horiz-adv-x="1449" d="M0 1446h426l311 -567l314 567h399l-535 -916v-530h-380v530z" />
<glyph unicode="Z" horiz-adv-x="1366" d="M55 0v276l744 881h-688v289h1161v-285l-737 -872h831l-168 -289h-1143z" />
<glyph unicode="[" horiz-adv-x="634" d="M123 -295v1868h487v-232h-178v-1404h178v-232h-487z" />
<glyph unicode="\" horiz-adv-x="811" d="M0 1446h313l498 -1446h-317z" />
<glyph unicode="]" horiz-adv-x="634" d="M27 -63h176v1402h-176v234h487v-1868h-487v232z" />
<glyph unicode="^" horiz-adv-x="1482" d="M150 575l436 871h323l426 -871h-358l-240 574l-248 -574h-339z" />
<glyph unicode="_" horiz-adv-x="1024" d="M-20 -256h1064v-211h-1064v211z" />
<glyph unicode="`" horiz-adv-x="512" d="M29 1399v276l452 -329v-246z" />
<glyph unicode="a" horiz-adv-x="1067" d="M31 291q0 35 7 69.5t35.5 87t76 91.5t138.5 66.5t214 27.5q10 0 157 -12q0 111 -62 156.5t-155 45.5q-145 0 -327 -80l149 261q137 32 267 32h8q82 0 150.5 -14t136 -51t106.5 -111t39 -180v-512q0 -74 8 -168h-313q-6 80 -7 156l-137 -170q-72 -10 -121 -11 q-160 0 -265 80t-105 236zM346 301q0 -51 38 -87t122 -36q67 0 153 35v223q-43 6 -100 6q-84 0 -148.5 -31.5t-64.5 -109.5z" />
<glyph unicode="b" d="M92 92v1354h334v-637l141 213q61 14 135 14q207 0 324 -143t117 -352q0 -240 -148.5 -403t-425.5 -163q-219 0 -477 117zM426 254q66 -43 143 -43q119 0 175.5 93t56.5 216q0 41 -9.5 84t-31 90t-69.5 78t-113 31q-82 0 -152 -43v-506z" />
<glyph unicode="c" horiz-adv-x="937" d="M51 504q0 96 33 188t97.5 171t176 127t252.5 48q146 0 289 -57v-274q-104 98 -233 98q-123 0 -197 -86t-74 -211q0 -137 84 -224t223 -87q86 0 236 53l-133 -244q-131 -31 -219 -31q-238 0 -386.5 148.5t-148.5 380.5z" />
<glyph unicode="d" d="M51 496q0 236 132 388t335 152q131 0 252 -75v485h332v-1446h-332v205l-139 -205q-82 -25 -148 -25q-119 0 -208 51.5t-135 133.5t-67.5 167t-21.5 169zM393 494q0 -145 65.5 -216t162.5 -71q77 0 149 45v496q-72 51 -149 51q-119 0 -173.5 -90.5t-54.5 -214.5z" />
<glyph unicode="e" horiz-adv-x="1150" d="M51 508q0 94 30 183t90 169t170 128t253 48q78 0 147.5 -14t140 -53t122 -99.5t83 -159t31.5 -223.5v-32h-715q10 -47 25.5 -84t52.5 -82t106.5 -69.5t168.5 -24.5q164 0 327 67l-145 -254q-141 -33 -289 -33q-268 0 -424 127q-174 143 -174 406zM397 633h402 q0 78 -49.5 142.5t-145.5 64.5q-57 0 -101 -28t-64.5 -65.5t-31 -67.5t-10.5 -46z" />
<glyph unicode="f" horiz-adv-x="681" d="M-29 778l125 234h23v75q0 176 99 285t314 109q96 0 195 -25v-242q-59 27 -117 27q-158 0 -157 -180v-49h221v-234h-221v-778h-334v778h-148z" />
<glyph unicode="g" d="M51 500q0 98 33 188t99.5 171t186 129t277.5 48q230 0 455 -100v-817q0 -74 -17.5 -145.5t-60.5 -144.5t-108.5 -127t-172 -88t-239.5 -34q-211 0 -398 76v287q74 -57 174.5 -92t192.5 -35q301 0 301 319v125l-145 -209q-61 -12 -117 -12q-190 0 -325.5 117.5 t-135.5 343.5zM395 530q0 -113 57.5 -187.5t165.5 -74.5q74 0 156 41v459q-70 31 -139 31q-115 0 -177.5 -76t-62.5 -193z" />
<glyph unicode="h" d="M94 0v1446h334v-660l145 226q102 24 183 24h6q340 0 340 -346v-690h-324v522q0 133 -33.5 204t-136.5 71q-88 0 -180 -64v-733h-334z" />
<glyph unicode="i" horiz-adv-x="512" d="M90 0v1012h330v-1012h-330zM92 1294.5q0 67.5 47 114.5t115 47t115 -47t47 -115q0 -70 -46 -117t-116 -47q-68 0 -115 48.5t-47 116z" />
<glyph unicode="j" horiz-adv-x="512" d="M92 -420v1432h328v-1241zM92 1294.5q0 67.5 47 114.5t115 47t115 -47t47 -115q0 -70 -46 -117t-116 -47q-68 0 -115 48.5t-47 116z" />
<glyph unicode="k" horiz-adv-x="1150" d="M92 0v1446h336v-856l338 422h369l-357 -449l402 -563h-385l-367 524v-524h-336z" />
<glyph unicode="l" horiz-adv-x="512" d="M88 0v1446h334v-1446h-334z" />
<glyph unicode="m" horiz-adv-x="1878" d="M94 0v1012h332v-213l145 205q108 34 198 34h5q139 0 223 -66.5t101 -176.5l151 211q108 32 207 32h6q125 0 222.5 -71.5t97.5 -229.5v-737h-332v563q0 113 -34 173.5t-136 60.5q-100 0 -176 -60v-737h-332v586q0 209 -162 209q-82 0 -184 -54v-741h-332z" />
<glyph unicode="n" d="M94 0v1012h324v-230l162 224q89 30 182 30h6q182 0 258 -99t76 -253v-684h-326v526q0 139 -39 203t-145 64q-90 0 -174 -66v-727h-324z" />
<glyph unicode="o" d="M51 504q0 242 157 387t396 145q260 0 399.5 -151.5t139.5 -384.5q-4 -266 -189 -414q-139 -111 -358 -111q-260 0 -402.5 149.5t-142.5 379.5zM399 506q0 -307 201 -307q88 0 141.5 77.5t55.5 227.5q0 313 -197 313q-94 0 -147.5 -77.5t-53.5 -233.5z" />
<glyph unicode="p" d="M94 -428v1440h334v-203l137 203q77 24 135 24h5q125 0 216 -52t137 -135t65.5 -164t19.5 -163q0 -231 -125 -389t-346 -158q-115 0 -244 74v-477h-334zM428 270q76 -57 154 -57q96 0 157.5 81t61.5 224q0 150 -67.5 219.5t-160.5 69.5q-90 0 -145 -41v-496z" />
<glyph unicode="q" d="M51 473q0 264 162 413.5t401 149.5q250 0 488 -116v-1348h-332v631l-141 -209q-82 -18 -140 -19q-193 0 -315.5 139.5t-122.5 358.5zM393 500q0 -45 9.5 -90t32 -94.5t69.5 -79t112 -29.5q74 0 154 47v502q-72 43 -139 43q-74 0 -125 -34t-73.5 -87t-31 -95t-8.5 -83z " />
<glyph unicode="r" horiz-adv-x="811" d="M94 0v1012h334v-205l141 205q79 26 174 26h7q37 0 61 -6v-325q-125 86 -229 86q-84 0 -154 -43v-750h-334z" />
<glyph unicode="s" horiz-adv-x="854" d="M59 713q0 51 20.5 104t63.5 104.5t123 83t187 31.5q150 0 313 -69v-248q-2 2 -18.5 16.5t-27.5 22.5t-34.5 22.5t-46.5 23.5t-54.5 15t-66.5 6q-63 0 -94 -32.5t-31 -69.5q0 -66 111 -109l112 -43q207 -80 207 -270q0 -31 -7 -64.5t-33.5 -83t-68.5 -87t-121 -64.5 t-181 -27q-182 0 -346 74v254q2 -2 28.5 -18.5t49 -28.5t56 -28.5t71.5 -24.5t77 -8q66 0 100.5 33.5t34.5 72.5q0 76 -121 117l-92 33q-211 76 -211 262z" />
<glyph unicode="t" horiz-adv-x="724" d="M-35 778l123 234h27v182l323 100v-282h244v-234h-244v-389q0 -61 18.5 -102t51.5 -55.5t53.5 -18.5t48.5 -4q55 0 142 24l-172 -237q-80 -18 -148 -19q-317 0 -317 308v493h-150z" />
<glyph unicode="u" d="M94 317v695h328v-586q0 -104 38 -155.5t124 -51.5q100 0 192 68v725h326v-1012h-326v229l-158 -223q-92 -31 -194 -31q-29 0 -59.5 4.5t-83 24t-91 53t-67.5 101t-29 159.5z" />
<glyph unicode="v" horiz-adv-x="1110" d="M0 1012h360l203 -695l199 695h348l-375 -1012h-358z" />
<glyph unicode="w" horiz-adv-x="1622" d="M0 1012h346l119 -684l207 684h297l190 -684l135 684h328l-250 -1012h-366l-197 618l-191 -618h-368z" />
<glyph unicode="x" horiz-adv-x="1150" d="M0 0l371 532l-338 480h366l185 -271l184 271h348l-334 -475l369 -537h-375l-205 305l-204 -305h-367z" />
<glyph unicode="y" horiz-adv-x="1110" d="M0 1012h352l213 -701l213 701h332l-377 -992q-31 -78 -51 -124t-66.5 -110.5t-100.5 -100t-143 -62t-202 -26.5q-78 0 -150 14l82 231q25 -10 62 -10q150 0 213 176z" />
<glyph unicode="z" horiz-adv-x="1067" d="M70 0v238l501 534h-465v240h887v-240l-495 -530h559l-139 -242h-848z" />
<glyph unicode="{" horiz-adv-x="681" d="M14 537v200q109 10 144 49t35 164v295q0 190 61 258t233 68h166v-199h-37q-76 0 -96 -43t-20 -174v-248q0 -125 -34 -179t-136 -93q96 -27 133 -85t37 -183v-285q0 -94 23.5 -136t103.5 -42h26v-201h-151q-184 0 -246.5 68.5t-62.5 257.5v295q0 127 -32 162.5t-147 50.5z " />
<glyph unicode="|" horiz-adv-x="565" d="M127 -295v1868h311v-1868h-311z" />
<glyph unicode="}" horiz-adv-x="681" d="M29 -98h37q76 0 96 43t20 174v248q0 125 34 179t136 93q-96 27 -133 85t-37 183v285q0 94 -23.5 136t-103.5 42h-26v201h151q184 0 246.5 -68.5t62.5 -257.5v-295q0 -127 32 -162.5t147 -50.5v-200q-109 -10 -144 -49t-35 -164v-295q0 -190 -61 -258t-233 -68h-166v199z " />
<glyph unicode="~" horiz-adv-x="1482" d="M176 428v346q119 139 270 139q90 0 254 -73l119 -54q117 -51 185 -51q70 0 135.5 40.5t167.5 146.5v-344q-90 -86 -160 -120t-154 -34q-90 0 -254 78l-73 35q-133 63 -213 63q-131 0 -277 -172z" />
<glyph unicode="&#xa1;" horiz-adv-x="598" d="M113 1292q0 74 49 123t123 49q76 0 125 -51t49 -121q0 -68 -47 -121t-127 -53q-76 0 -124 51t-48 123zM115 0q25 664 30 903l277 135l33 -1038h-340z" />
<glyph unicode="&#xa2;" horiz-adv-x="1071" d="M88 500q0 201 110.5 342t297.5 182v270h245v-256q117 -6 224 -57v-279q-106 98 -260 99q-117 0 -195 -81t-78 -208q0 -158 95.5 -229.5t226.5 -71.5q125 0 256 53l-142 -254q-47 -14 -127 -22v-258h-245v268q-174 35 -291 173t-117 329z" />
<glyph unicode="&#xa3;" horiz-adv-x="1280" d="M20 569v248h261v80q0 227 141 380t418 153q160 0 315 -58v-305q-113 94 -256 94q-115 0 -194.5 -68.5t-79.5 -211.5v-64h346v-248h-346v-305h690l-154 -264h-1040l160 264v305h-261z" />
<glyph unicode="&#xa4;" horiz-adv-x="1417" d="M61 219l166 164q-96 137 -96 309q0 166 94 314l-159 161l170 170l159 -159q137 92 316 92q164 0 309 -92l162 161l172 -172l-162 -161q92 -154 92 -312q0 -166 -94 -313l162 -166l-172 -170l-162 164q-158 -90 -311 -90q-164 0 -312 94l-162 -164zM412 694 q0 -127 86 -214t213 -87q123 0 209 86t86 211q0 131 -85 219t-212 88q-125 0 -211 -88t-86 -215z" />
<glyph unicode="&#xa5;" horiz-adv-x="1449" d="M31 1399h424l280 -512l287 512h397l-336 -574h185v-180h-289l-64 -108v-19h353v-178h-353v-340h-378v340h-373v178h373v21l-60 106h-313v180h207z" />
<glyph unicode="&#xa6;" horiz-adv-x="565" d="M127 -297v805h311v-805h-311zM127 768v803h311v-803h-311z" />
<glyph unicode="&#xa7;" horiz-adv-x="1024" d="M43 504q0 76 28.5 141.5t72.5 108.5t80 67.5t67 38.5l-21.5 21.5t-30 32t-30 38t-29.5 50t-18 60.5t-8 75q0 23 6 55.5t32.5 86.5t69.5 97t128 75t198 32q168 0 330 -72v-315q-109 125 -252 125q-80 0 -114 -40t-34 -79q0 -82 119 -144l106 -55q92 -47 167 -133t75 -215 q0 -131 -71.5 -218t-159.5 -136q119 -119 118 -250q0 -168 -129 -274.5t-299 -106.5q-192 0 -346 72v315q137 -119 256 -119q82 0 119 42t37 89q0 84 -123 144l-70 34q-133 68 -203.5 147t-70.5 210zM360 551q0 -121 172 -207q131 74 132 186q0 123 -170 197 q-133 -63 -134 -176z" />
<glyph unicode="&#xa8;" horiz-adv-x="512" d="M-100 1337q0 61 42 107.5t105 46.5q66 0 109 -43t43 -111q0 -66 -44 -108.5t-107.5 -42.5t-105.5 42.5t-42 108.5zM313 1337q0 61 42 107.5t105.5 46.5t107.5 -43t44 -111q0 -66 -44 -108.5t-107.5 -42.5t-105.5 42.5t-42 108.5z" />
<glyph unicode="&#xa9;" horiz-adv-x="1675" d="M111 727q0 305 210.5 515t518.5 210q305 0 516 -212t211 -521q0 -299 -214 -512t-517.5 -213t-514 213t-210.5 520zM201 721q0 -268 186 -456.5t451 -188.5q262 0 448.5 188.5t186.5 454.5q0 274 -183.5 462.5t-451.5 188.5q-266 0 -451.5 -188.5t-185.5 -460.5zM426 723 q0 209 132 339t343 130q140 0 244 -53v-242q-92 86 -201 86q-106 0 -172.5 -72.5t-66.5 -187.5q0 -121 75.5 -194.5t198.5 -73.5q84 0 201 47l-117 -219q-90 -27 -180 -27q-201 0 -329 131t-128 336z" />
<glyph unicode="&#xaa;" horiz-adv-x="724" d="M37 979q0 98 74.5 160.5t226.5 62.5q66 0 102 -6q-2 27 -7 45.5t-19.5 38.5t-44 30.5t-72.5 10.5q-27 0 -54.5 -4t-52 -11.5t-41 -13.5t-38 -15t-25.5 -11l102 174q82 23 181 22q135 0 205.5 -59.5t70.5 -171.5v-316q0 -99 4 -124h-205q-4 37 -4 96l-84 -105 q-29 -8 -69 -8q-131 0 -190.5 60.5t-59.5 144.5zM244 987q0 -78 100 -78q49 1 96 21v141q-29 4 -57 4q-139 0 -139 -88z" />
<glyph unicode="&#xab;" horiz-adv-x="980" d="M10 545l221 317h287l-223 -317l223 -324h-285zM463 545l223 317h285l-223 -317l223 -324h-285z" />
<glyph unicode="&#xac;" horiz-adv-x="1482" d="M139 524v275h1159v-750h-342v475h-817z" />
<glyph unicode="&#xad;" horiz-adv-x="782" d="M4 428l158 225h616l-157 -225h-617z" />
<glyph unicode="&#xae;" horiz-adv-x="1675" d="M111 727q0 305 210.5 515t518.5 210q305 0 516 -212t211 -521q0 -299 -214 -512t-517.5 -213t-514 213t-210.5 520zM201 721q0 -268 186 -456.5t451 -188.5q262 0 448.5 188.5t186.5 454.5q0 274 -183.5 462.5t-451.5 188.5q-266 0 -451.5 -188.5t-185.5 -460.5zM508 283 v891h270q156 0 232 -23q84 -25 135 -93.5t51 -158.5q0 -162 -145 -240l215 -376h-265l-178 356q-20 -2 -53 -2h-27v-354h-235zM741 674l82 117h13q125 0 125 106q0 102 -148 102h-72v-325z" />
<glyph unicode="&#xaf;" horiz-adv-x="512" d="M-55 1214v220h622v-220h-622z" />
<glyph unicode="&#xb0;" horiz-adv-x="724" d="M10 1194q0 147 103.5 249.5t248.5 102.5q147 0 250 -103.5t103 -250.5q0 -145 -103.5 -248.5t-249.5 -103.5q-147 0 -249.5 104.5t-102.5 249.5zM215 1192q0 -61 42 -104.5t105 -43.5q61 0 103.5 43.5t42.5 104.5q0 59 -43 103t-103 44q-61 0 -104 -44t-43 -103z" />
<glyph unicode="&#xb1;" horiz-adv-x="1482" d="M188 0v270h1106v-270h-1106zM188 768v268h383v377h342v-377h381v-268h-383v-389h-342v389h-381z" />
<glyph unicode="&#xb2;" horiz-adv-x="839" d="M98 494v174q12 12 60.5 62t68 71.5t60.5 67.5t60.5 72t44 60.5t34.5 60t10 46.5q0 39 -24.5 72.5t-81.5 33.5q-104 0 -211 -106v231q145 76 276 76q152 0 236 -80t84 -190q0 -135 -117 -260l-184 -201h389l-139 -190h-566z" />
<glyph unicode="&#xb3;" horiz-adv-x="839" d="M102 532v226q47 -41 113 -67.5t117 -26.5q57 0 94 27.5t37 76.5q0 117 -180 117q-57 0 -80 -2l114 159q88 16 89 101q0 31 -24 55.5t-71 24.5q-86 0 -192 -99v217q135 74 268 74q141 0 218 -69.5t77 -169.5q0 -137 -133 -195q86 -20 135 -79.5t49 -139.5 q0 -135 -100.5 -210t-245.5 -75q-162 0 -285 55z" />
<glyph unicode="&#xb4;" horiz-adv-x="512" d="M29 1102v239l452 334v-274z" />
<glyph unicode="&#xb6;" horiz-adv-x="1308" d="M135 1016q0 193 129 317q61 61 142 87t225 26h489v-172h-71v-1616h-183v1616h-231v-1616h-182v958q-317 80 -318 400z" />
<glyph unicode="&#xb7;" horiz-adv-x="487" d="M70 549q0 74 50 124t123.5 50t124 -50t50.5 -124q0 -76 -49.5 -126t-124.5 -50q-74 0 -124 51t-50 125z" />
<glyph unicode="&#xb8;" horiz-adv-x="512" d="M59 -375q156 14 156 105q0 41 -29.5 65.5t-72.5 26.5l98 209h156l-66 -131q150 -36 150 -183q0 -106 -100.5 -176.5t-291.5 -77.5v162z" />
<glyph unicode="&#xb9;" horiz-adv-x="839" d="M172 1053v190l414 174v-923h-254v622z" />
<glyph unicode="&#xba;" horiz-adv-x="768" d="M29 1116q0 152 99 249t259 97q156 0 253 -92t97 -244q0 -154 -91 -253t-265 -99q-166 0 -259 94.5t-93 247.5zM258 1118q0 -195 127 -194q59 0 92 51t33 141q0 199 -125 199q-127 0 -127 -197z" />
<glyph unicode="&#xbb;" horiz-adv-x="980" d="M10 221l223 320l-223 321h287l221 -321l-221 -320h-287zM463 221l223 320l-223 321h287l221 -321l-221 -320h-287z" />
<glyph unicode="&#xbc;" horiz-adv-x="1961" d="M190 1053v190l414 174v-923h-254v622zM512 0l690 1399h221l-690 -1399h-221zM1114 199v120l356 586h287v-526h154l-111 -180h-43v-199h-231v199h-412zM1354 379h172q0 195 2 317z" />
<glyph unicode="&#xbd;" horiz-adv-x="1961" d="M172 1053v190l414 174v-923h-254v622zM471 0l690 1399h221l-690 -1399h-221zM1194 0v174q12 12 60.5 62.5t67.5 72t60 67.5t60.5 71.5t44 60.5t35 60.5t10.5 45.5q0 39 -24.5 73t-82.5 34q-104 0 -211 -107v232q145 76 277 76q152 0 235.5 -80t83.5 -191 q0 -135 -116 -260l-185 -201h389l-139 -190h-565z" />
<glyph unicode="&#xbe;" horiz-adv-x="1961" d="M117 532v226q47 -41 112.5 -67.5t116.5 -26.5q57 0 94 27.5t37 76.5q0 117 -180 117q-57 0 -80 -2l115 159q88 16 88 101q0 31 -23.5 55.5t-70.5 24.5q-86 0 -193 -99v217q135 74 268 74q141 0 218 -69.5t77 -169.5q0 -137 -133 -195q86 -20 135.5 -79.5t49.5 -139.5 q0 -135 -100.5 -210t-246.5 -75q-162 0 -284 55zM549 0l690 1399h221l-690 -1399h-221zM1151 199v120l356 586h287v-526h154l-111 -180h-43v-199h-231v199h-412zM1391 379h172q0 195 2 317z" />
<glyph unicode="&#xbf;" horiz-adv-x="894" d="M10 354q0 147 91.5 243.5t236.5 111.5v188l311 143v-483q-293 0 -293 -174q0 -61 51.5 -102t131.5 -41q139 0 297 114v-299q-178 -86 -365 -86q-127 0 -222 39t-144.5 99.5t-72 123t-22.5 123.5zM322 1292q0 74 49 123t123 49q76 0 125 -51t49 -120.5t-48.5 -122 t-123.5 -52.5q-78 0 -126 51t-48 123z" />
<glyph unicode="&#xc0;" horiz-adv-x="1492" d="M0 0l569 1446h367l557 -1446h-399l-99 289h-516l-104 -289h-375zM428 1745v250l539 -252v-215zM557 512h363l-177 526z" />
<glyph unicode="&#xc1;" horiz-adv-x="1492" d="M0 0l569 1446h367l557 -1446h-399l-99 289h-516l-104 -289h-375zM555 1528v215l539 254v-252zM557 512h363l-177 526z" />
<glyph unicode="&#xc2;" horiz-adv-x="1492" d="M0 0l569 1446h367l557 -1446h-399l-99 289h-516l-104 -289h-375zM410 1526v205l331 211l336 -207v-211l-336 170zM557 512h363l-177 526z" />
<glyph unicode="&#xc3;" horiz-adv-x="1492" d="M0 0l569 1446h367l557 -1446h-399l-99 289h-516l-104 -289h-375zM406 1575v199q78 106 194 106q51 0 158 -43q98 -39 149 -39q105 0 183 92v-209q-70 -100 -187 -100q-53 0 -184 47q-90 31 -131 31q-102 0 -182 -84zM557 512h363l-177 526z" />
<glyph unicode="&#xc4;" horiz-adv-x="1492" d="M0 0l569 1446h367l557 -1446h-399l-99 289h-516l-104 -289h-375zM389 1716q0 59 42 105.5t105.5 46.5t106.5 -43t43 -108.5t-44 -108.5t-105 -43q-63 0 -105.5 42.5t-42.5 108.5zM557 512h363l-177 526zM819 1716q0 61 41 106.5t104.5 45.5t106.5 -43t43 -108.5 t-44 -108.5t-105 -43q-63 0 -104.5 42.5t-41.5 108.5z" />
<glyph unicode="&#xc5;" horiz-adv-x="1492" d="M0 0l569 1446h367l557 -1446h-399l-99 289h-516l-104 -289h-375zM520 1753q0 98 67.5 162.5t166.5 64.5q100 0 167.5 -64.5t67.5 -162.5q0 -100 -66.5 -164.5t-169 -64.5t-168 65.5t-65.5 163.5zM557 512h363l-177 526zM662 1753q0 -41 25.5 -68.5t66.5 -27.5t66.5 27.5 t25.5 68.5q0 43 -25.5 68.5t-66.5 25.5t-66.5 -26.5t-25.5 -67.5z" />
<glyph unicode="&#xc6;" horiz-adv-x="2134" d="M0 0l881 1446h1140v-283h-561v-276h484v-281h-484v-317h676l-170 -289h-868v340h-496l-199 -340h-403zM756 604h342v580z" />
<glyph unicode="&#xc7;" horiz-adv-x="1366" d="M63 707q0 332 229.5 554t618.5 222q213 -1 389 -60v-321q-172 109 -344 108q-219 0 -359 -134t-140 -353q0 -203 136 -349.5t398 -146.5q197 0 375 78l-176 -303q-129 -35 -285 -39l-33 -69q152 -37 152 -193q0 -113 -102.5 -182.5t-305.5 -77.5v164q172 8 172 108 q0 94 -116 99l78 159q-133 16 -252 67.5t-218.5 138.5t-158 224.5t-58.5 305.5z" />
<glyph unicode="&#xc8;" horiz-adv-x="1150" d="M109 0v1446h938v-285h-562v-278h482v-281h-482v-315h670l-164 -287h-882zM252 1745v250l539 -252v-215z" />
<glyph unicode="&#xc9;" horiz-adv-x="1150" d="M109 0v1446h938v-285h-562v-278h482v-281h-482v-315h670l-164 -287h-882zM412 1528v215l538 254v-252z" />
<glyph unicode="&#xca;" horiz-adv-x="1150" d="M109 0v1446h938v-285h-562v-278h482v-281h-482v-315h670l-164 -287h-882zM250 1526v205l332 211l336 -207v-211l-336 170z" />
<glyph unicode="&#xcb;" horiz-adv-x="1150" d="M109 0v1446h938v-285h-562v-278h482v-281h-482v-315h670l-164 -287h-882zM240 1716q0 59 42 105.5t105.5 46.5t106.5 -43t43 -108.5t-44 -108.5t-106 -43q-63 0 -105 42.5t-42 108.5zM670 1716q0 61 41 106.5t104.5 45.5t106.5 -43t43 -108.5t-44 -108.5t-106 -43 q-63 0 -104 42.5t-41 108.5z" />
<glyph unicode="&#xcc;" horiz-adv-x="598" d="M-14 1745v250l538 -252v-215zM109 0v1446h378v-1446h-378z" />
<glyph unicode="&#xcd;" horiz-adv-x="598" d="M68 1528v215l538 254v-252zM109 0v1446h378v-1446h-378z" />
<glyph unicode="&#xce;" horiz-adv-x="598" d="M-35 1526v205l332 211l336 -207v-211l-336 170zM109 0v1446h378v-1446h-378z" />
<glyph unicode="&#xcf;" horiz-adv-x="598" d="M-63 1716q0 59 41.5 105.5t105 46.5t106.5 -43t43 -108.5t-44 -108.5t-105 -43q-63 0 -105 42.5t-42 108.5zM109 0v1446h378v-1446h-378zM367 1716q0 61 41 106.5t104 45.5t106.5 -43t43.5 -108.5t-44.5 -108.5t-105.5 -43q-63 0 -104 42.5t-41 108.5z" />
<glyph unicode="&#xd0;" horiz-adv-x="1536" d="M4 647v217h105v582h598q182 0 324.5 -50t223 -125t132 -175.5t69 -188.5t17.5 -176q0 -102 -24 -200.5t-81 -195.5t-142 -170t-220.5 -119t-303.5 -46h-593v647h-105zM483 279h127q221 0 342 116.5t121 329.5q0 160 -73.5 264.5t-182.5 145.5q-80 31 -223 30h-111v-301 h320v-217h-320v-368z" />
<glyph unicode="&#xd1;" horiz-adv-x="1622" d="M109 0v1446h331l707 -784v784h364v-1446h-243l-793 879v-879h-366zM467 1575v199q78 106 195 106q51 0 157 -43q98 -39 150 -39q104 0 182 92v-209q-70 -100 -186 -100q-53 0 -185 47q-90 31 -131 31q-102 0 -182 -84z" />
<glyph unicode="&#xd2;" horiz-adv-x="1705" d="M63 723q0 143 48.5 275t141.5 243t251 176.5t356 65.5q139 0 272.5 -43t250 -130t188 -236.5t71.5 -342.5q0 -141 -47 -274t-138 -245t-245.5 -180.5t-349.5 -68.5q-379 0 -589 218t-210 542zM463 723q0 -190 101.5 -331.5t291.5 -141.5q178 0 283.5 139t105.5 322 q0 82 -19.5 162.5t-60.5 157.5t-120.5 125t-188.5 48q-160 0 -276.5 -126t-116.5 -355zM532 1745v250l539 -252v-215z" />
<glyph unicode="&#xd3;" horiz-adv-x="1705" d="M63 723q0 143 48.5 275t141.5 243t251 176.5t356 65.5q139 0 272.5 -43t250 -130t188 -236.5t71.5 -342.5q0 -141 -47 -274t-138 -245t-245.5 -180.5t-349.5 -68.5q-379 0 -589 218t-210 542zM463 723q0 -190 101.5 -331.5t291.5 -141.5q178 0 283.5 139t105.5 322 q0 82 -19.5 162.5t-60.5 157.5t-120.5 125t-188.5 48q-160 0 -276.5 -126t-116.5 -355zM637 1528v215l539 254v-252z" />
<glyph unicode="&#xd4;" horiz-adv-x="1705" d="M63 723q0 143 48.5 275t141.5 243t251 176.5t356 65.5q139 0 272.5 -43t250 -130t188 -236.5t71.5 -342.5q0 -141 -47 -274t-138 -245t-245.5 -180.5t-349.5 -68.5q-379 0 -589 218t-210 542zM463 723q0 -190 101.5 -331.5t291.5 -141.5q178 0 283.5 139t105.5 322 q0 82 -19.5 162.5t-60.5 157.5t-120.5 125t-188.5 48q-160 0 -276.5 -126t-116.5 -355zM524 1526v205l332 211l336 -207v-211l-336 170z" />
<glyph unicode="&#xd5;" horiz-adv-x="1705" d="M63 723q0 143 48.5 275t141.5 243t251 176.5t356 65.5q139 0 272.5 -43t250 -130t188 -236.5t71.5 -342.5q0 -141 -47 -274t-138 -245t-245.5 -180.5t-349.5 -68.5q-379 0 -589 218t-210 542zM463 723q0 -190 101.5 -331.5t291.5 -141.5q178 0 283.5 139t105.5 322 q0 82 -19.5 162.5t-60.5 157.5t-120.5 125t-188.5 48q-160 0 -276.5 -126t-116.5 -355zM524 1575v199q78 106 195 106q51 0 158 -43q98 -39 149 -39q104 0 182 92v-209q-70 -100 -186 -100q-53 0 -184 47q-90 31 -131 31q-102 0 -183 -84z" />
<glyph unicode="&#xd6;" horiz-adv-x="1705" d="M63 723q0 143 48.5 275t141.5 243t251 176.5t356 65.5q139 0 272.5 -43t250 -130t188 -236.5t71.5 -342.5q0 -141 -47 -274t-138 -245t-245.5 -180.5t-349.5 -68.5q-379 0 -589 218t-210 542zM463 723q0 -190 101.5 -331.5t291.5 -141.5q178 0 283.5 139t105.5 322 q0 82 -19.5 162.5t-60.5 157.5t-120.5 125t-188.5 48q-160 0 -276.5 -126t-116.5 -355zM498 1716q0 59 42 105.5t105.5 46.5t106.5 -43t43 -108.5t-44 -108.5t-106 -43q-63 0 -105 42.5t-42 108.5zM928 1716q0 61 41 106.5t104.5 45.5t106.5 -43t43 -108.5t-44 -108.5 t-106 -43q-63 0 -104 42.5t-41 108.5z" />
<glyph unicode="&#xd7;" horiz-adv-x="1482" d="M225 909l234 252l293 -276l262 278l207 -192l-263 -279l302 -280l-234 -252l-299 280l-262 -276l-207 192l262 279z" />
<glyph unicode="&#xd8;" horiz-adv-x="1705" d="M-4 61l215 203q-49 74 -73.5 119t-49.5 137t-25 203q0 303 191 512q221 248 604 248q147 0 276.5 -41t208.5 -107l218 209l149 -162l-211 -200q145 -190 146 -449q0 -311 -199 -528q-221 -242 -588 -242q-123 0 -266 38t-223 110l-224 -211zM457 743q0 -104 39 -208 l612 579q-123 94 -252 94q-162 0 -280.5 -129t-118.5 -336zM608 338q111 -94 248 -94q172 0 283 131q117 137 116 344q1 90 -36 196z" />
<glyph unicode="&#xd9;" horiz-adv-x="1536" d="M109 532v914h376v-821q0 -86 10.5 -146.5t38 -120t87 -90t151.5 -30.5q90 0 150.5 31.5t86 89t35 108.5t9.5 117v862h374v-868q0 -221 -67 -347q-145 -268 -596 -268q-303 0 -473 137q-182 150 -182 432zM416 1745v250l538 -252v-215z" />
<glyph unicode="&#xda;" horiz-adv-x="1536" d="M109 532v914h376v-821q0 -86 10.5 -146.5t38 -120t87 -90t151.5 -30.5q90 0 150.5 31.5t86 89t35 108.5t9.5 117v862h374v-868q0 -221 -67 -347q-145 -268 -596 -268q-303 0 -473 137q-182 150 -182 432zM602 1528v215l539 254v-252z" />
<glyph unicode="&#xdb;" horiz-adv-x="1536" d="M109 532v914h376v-821q0 -86 10.5 -146.5t38 -120t87 -90t151.5 -30.5q90 0 150.5 31.5t86 89t35 108.5t9.5 117v862h374v-868q0 -221 -67 -347q-145 -268 -596 -268q-303 0 -473 137q-182 150 -182 432zM434 1526v205l332 211l336 -207v-211l-336 170z" />
<glyph unicode="&#xdc;" horiz-adv-x="1536" d="M109 532v914h376v-821q0 -86 10.5 -146.5t38 -120t87 -90t151.5 -30.5q90 0 150.5 31.5t86 89t35 108.5t9.5 117v862h374v-868q0 -221 -67 -347q-145 -268 -596 -268q-303 0 -473 137q-182 150 -182 432zM406 1716q0 59 41.5 105.5t105 46.5t106.5 -43t43 -108.5 t-44 -108.5t-105 -43q-63 0 -105 42.5t-42 108.5zM836 1716q0 61 41 106.5t104 45.5t106 -43t43 -108.5t-44 -108.5t-105 -43q-63 0 -104 42.5t-41 108.5z" />
<glyph unicode="&#xdd;" horiz-adv-x="1449" d="M0 1446h426l311 -567l314 567h399l-535 -916v-530h-380v530zM543 1528v215l538 254v-252z" />
<glyph unicode="&#xde;" horiz-adv-x="1280" d="M109 0v1446h376v-264h201q94 0 159.5 -8.5t153.5 -48.5t148 -113q90 -113 90 -260q0 -162 -98 -275q-145 -168 -467 -168h-187v-309h-376zM485 342l150 213q113 0 168 52t55 126q0 180 -227 180h-146v-571z" />
<glyph unicode="&#xdf;" horiz-adv-x="1236" d="M94 0v983q0 219 141.5 358.5t417.5 139.5q72 0 143.5 -17.5t143.5 -55.5t117 -112.5t45 -175.5q0 -121 -73 -196.5t-161 -106.5q135 -20 226.5 -119.5t91.5 -273.5q0 -211 -126 -330t-306 -119q-98 0 -219 39v256q63 -43 133 -43q84 0 133 59.5t49 143.5q0 125 -88 192.5 t-223 67.5h-45l165 236q53 20 84 53t31 98.5t-38 117.5t-124 52q-98 0 -143 -75.5t-45 -188.5v-983h-330z" />
<glyph unicode="&#xe0;" horiz-adv-x="1067" d="M31 291q0 35 7 69.5t35.5 87t76 91.5t138.5 66.5t214 27.5q10 0 157 -12q0 111 -62 156.5t-155 45.5q-145 0 -327 -80l149 261q141 33 275 32q82 0 150.5 -14t136 -51t106.5 -111t39 -180v-512q0 -74 8 -168h-313q-6 80 -7 156l-137 -170q-72 -10 -121 -11 q-160 0 -265 80t-105 236zM240 1399v276l452 -329v-246zM346 301q0 -51 38 -87t122 -36q67 0 153 35v223q-43 6 -100 6q-84 0 -148.5 -31.5t-64.5 -109.5z" />
<glyph unicode="&#xe1;" horiz-adv-x="1067" d="M31 291q0 35 7 69.5t35.5 87t76 91.5t138.5 66.5t214 27.5q10 0 157 -12q0 111 -62 156.5t-155 45.5q-145 0 -327 -80l149 261q141 33 275 32q82 0 150.5 -14t136 -51t106.5 -111t39 -180v-512q0 -74 8 -168h-313q-6 80 -7 156l-137 -170q-72 -10 -121 -11 q-160 0 -265 80t-105 236zM346 301q0 -51 38 -87t122 -36q67 0 153 35v223q-43 6 -100 6q-84 0 -148.5 -31.5t-64.5 -109.5zM381 1102v239l453 334v-274z" />
<glyph unicode="&#xe2;" horiz-adv-x="1067" d="M31 291q0 35 7 69.5t35.5 87t76 91.5t138.5 66.5t214 27.5q10 0 157 -12q0 111 -62 156.5t-155 45.5q-145 0 -327 -80l149 261q141 33 275 32q82 0 150.5 -14t136 -51t106.5 -111t39 -180v-512q0 -74 8 -168h-313q-6 80 -7 156l-137 -170q-72 -10 -121 -11 q-160 0 -265 80t-105 236zM225 1108v223l310 279l313 -273v-229l-313 235zM346 301q0 -51 38 -87t122 -36q67 0 153 35v223q-43 6 -100 6q-84 0 -148.5 -31.5t-64.5 -109.5z" />
<glyph unicode="&#xe3;" horiz-adv-x="1067" d="M31 291q0 35 7 69.5t35.5 87t76 91.5t138.5 66.5t214 27.5q10 0 157 -12q0 111 -62 156.5t-155 45.5q-145 0 -327 -80l149 261q141 33 275 32q82 0 150.5 -14t136 -51t106.5 -111t39 -180v-512q0 -74 8 -168h-313q-6 80 -7 156l-137 -170q-72 -10 -121 -11 q-160 0 -265 80t-105 236zM219 1174v202q76 104 184 105q55 0 150 -43q86 -37 141 -37q92 0 172 90v-211q-63 -100 -176 -100q-49 0 -176 47q-82 31 -121 30q-94 0 -174 -83zM346 301q0 -51 38 -87t122 -36q67 0 153 35v223q-43 6 -100 6q-84 0 -148.5 -31.5t-64.5 -109.5z " />
<glyph unicode="&#xe4;" horiz-adv-x="1067" d="M31 291q0 35 7 69.5t35.5 87t76 91.5t138.5 66.5t214 27.5q10 0 157 -12q0 111 -62 156.5t-155 45.5q-145 0 -327 -80l149 261q141 33 275 32q82 0 150.5 -14t136 -51t106.5 -111t39 -180v-512q0 -74 8 -168h-313q-6 80 -7 156l-137 -170q-72 -10 -121 -11 q-160 0 -265 80t-105 236zM205 1337q0 61 42 107.5t105 46.5q66 0 109 -43t43 -111q0 -66 -44 -108.5t-107.5 -42.5t-105.5 42.5t-42 108.5zM346 301q0 -51 38 -87t122 -36q67 0 153 35v223q-43 6 -100 6q-84 0 -148.5 -31.5t-64.5 -109.5zM618 1337q0 61 42 107.5 t105.5 46.5t108 -43t44.5 -111q0 -66 -44.5 -108.5t-108 -42.5t-105.5 42.5t-42 108.5z" />
<glyph unicode="&#xe5;" horiz-adv-x="1067" d="M31 291q0 35 7 69.5t35.5 87t76 91.5t138.5 66.5t214 27.5q10 0 157 -12q0 111 -62 156.5t-155 45.5q-145 0 -327 -80l149 261q141 33 275 32q82 0 150.5 -14t136 -51t106.5 -111t39 -180v-512q0 -74 8 -168h-313q-6 80 -7 156l-137 -170q-72 -10 -121 -11 q-160 0 -265 80t-105 236zM313 1356q0 96 65.5 159.5t164 63.5t164 -63.5t65.5 -159.5q0 -98 -64.5 -162t-165 -64t-165 63.5t-64.5 162.5zM346 301q0 -51 38 -87t122 -36q67 0 153 35v223q-43 6 -100 6q-84 0 -148.5 -31.5t-64.5 -109.5zM453 1356q0 -41 25.5 -67.5 t64.5 -26.5t64.5 26.5t25.5 67.5t-24.5 66.5t-65.5 25.5q-39 0 -64.5 -26.5t-25.5 -65.5z" />
<glyph unicode="&#xe6;" horiz-adv-x="1705" d="M31 297q0 104 57 184q115 160 412 160q25 0 147 -10q-2 35 -8 59.5t-25.5 60t-66.5 55t-117 19.5q-135 0 -315 -80l149 256q127 35 264 35q240 0 330 -116q135 119 322 118q248 0 387 -180q106 -139 106 -375v-28h-698q8 -45 25.5 -84t53.5 -83t102.5 -71t154.5 -27 q168 0 338 74l-148 -256q-131 -33 -293 -33q-309 0 -463 193l-122 -170q-76 -23 -170 -23q-197 0 -309.5 84t-112.5 238zM346 307q0 -43 22.5 -71.5t58.5 -40t59.5 -14.5t45.5 -3q113 0 185 35q-63 111 -70 240q-20 2 -51 2q-119 0 -180 -33q-70 -39 -70 -115zM969 633h385 q-6 90 -53.5 147.5t-133.5 57.5q-94 0 -142 -65.5t-56 -139.5z" />
<glyph unicode="&#xe7;" horiz-adv-x="937" d="M51 504q0 96 33 188t97.5 171t176 127t252.5 48q145 0 289 -57v-274q-104 98 -233 98q-123 0 -197 -86t-74 -211q0 -137 84 -224t223 -87q86 0 236 53l-133 -244q-90 -20 -154 -26l-39 -80q150 -36 150 -183q0 -106 -100.5 -176.5t-290.5 -77.5v162q156 14 155 105 q0 41 -29.5 65.5t-72.5 26.5l74 160q-203 27 -325 170t-122 352z" />
<glyph unicode="&#xe8;" horiz-adv-x="1150" d="M51 508q0 94 30 183t90 169t170 128t253 48q78 0 147.5 -14t140 -53t122 -99.5t83 -159t31.5 -223.5v-32h-715q10 -47 25.5 -84t52.5 -82t106.5 -69.5t168.5 -24.5q164 0 327 67l-145 -254q-141 -33 -289 -33q-268 0 -424 127q-174 143 -174 406zM295 1399v276l453 -329 v-246zM397 633h402q0 78 -49.5 142.5t-145.5 64.5q-57 0 -101 -28t-64.5 -65.5t-31 -67.5t-10.5 -46z" />
<glyph unicode="&#xe9;" horiz-adv-x="1150" d="M51 508q0 94 30 183t90 169t170 128t253 48q78 0 147.5 -14t140 -53t122 -99.5t83 -159t31.5 -223.5v-32h-715q10 -47 25.5 -84t52.5 -82t106.5 -69.5t168.5 -24.5q164 0 327 67l-145 -254q-141 -33 -289 -33q-268 0 -424 127q-174 143 -174 406zM397 633h402 q0 78 -49.5 142.5t-145.5 64.5q-57 0 -101 -28t-64.5 -65.5t-31 -67.5t-10.5 -46zM453 1102v239l452 334v-274z" />
<glyph unicode="&#xea;" horiz-adv-x="1150" d="M51 508q0 94 30 183t90 169t170 128t253 48q78 0 147.5 -14t140 -53t122 -99.5t83 -159t31.5 -223.5v-32h-715q10 -47 25.5 -84t52.5 -82t106.5 -69.5t168.5 -24.5q164 0 327 67l-145 -254q-141 -33 -289 -33q-268 0 -424 127q-174 143 -174 406zM285 1108v223l309 279 l313 -273v-229l-313 235zM397 633h402q0 78 -49.5 142.5t-145.5 64.5q-57 0 -101 -28t-64.5 -65.5t-31 -67.5t-10.5 -46z" />
<glyph unicode="&#xeb;" horiz-adv-x="1150" d="M51 508q0 94 30 183t90 169t170 128t253 48q78 0 147.5 -14t140 -53t122 -99.5t83 -159t31.5 -223.5v-32h-715q10 -47 25.5 -84t52.5 -82t106.5 -69.5t168.5 -24.5q164 0 327 67l-145 -254q-141 -33 -289 -33q-268 0 -424 127q-174 143 -174 406zM233 1337q0 61 42 107.5 t106 46.5q66 0 108.5 -43t42.5 -111q0 -66 -44 -108.5t-107.5 -42.5t-105.5 42.5t-42 108.5zM397 633h402q0 78 -49.5 142.5t-145.5 64.5q-57 0 -101 -28t-64.5 -65.5t-31 -67.5t-10.5 -46zM647 1337q0 61 42 107.5t105.5 46.5t107.5 -43t44 -111q0 -66 -44 -108.5 t-107.5 -42.5t-105.5 42.5t-42 108.5z" />
<glyph unicode="&#xec;" horiz-adv-x="512" d="M-14 1399v276l452 -329v-246zM90 0v1012h330v-1012h-330z" />
<glyph unicode="&#xed;" horiz-adv-x="512" d="M49 1102v239l453 334v-274zM90 0v1012h330v-1012h-330z" />
<glyph unicode="&#xee;" horiz-adv-x="512" d="M-55 1108v223l309 279l313 -273v-229l-313 235zM90 0v1012h330v-1012h-330z" />
<glyph unicode="&#xef;" horiz-adv-x="512" d="M-104 1337q0 61 42 107.5t105 46.5q66 0 109 -43t43 -111q0 -66 -44.5 -108.5t-107.5 -42.5t-105 42.5t-42 108.5zM90 0v1012h330v-1012h-330zM309 1337q0 61 42 107.5t105.5 46.5t107.5 -43t44 -111q0 -66 -44 -108.5t-107.5 -42.5t-105.5 42.5t-42 108.5z" />
<glyph unicode="&#xf0;" d="M57 512q0 221 130 372.5t358 151.5q72 0 133 -18q-20 45 -88 139l-258 -86l-68 135l211 68q-39 33 -123 88l318 125q84 -59 131 -107l170 56l67 -133l-127 -41q92 -106 164 -287.5t72 -396.5q0 -80 -11.5 -154t-47 -159t-94 -146.5t-162 -102.5t-238.5 -41 q-246 0 -391.5 146.5t-145.5 390.5zM406 526q0 -154 53 -239.5t153 -85.5q193 0 193 299q0 47 -6 92t-24.5 101.5t-62.5 90t-108 33.5q-96 0 -147 -75t-51 -216z" />
<glyph unicode="&#xf1;" d="M94 0v1012h324v-230l162 224q92 31 188 30q182 0 258 -99t76 -253v-684h-326v526q0 139 -39 203t-145 64q-90 0 -174 -66v-727h-324zM276 1174v202q76 104 185 105q55 0 149 -43q86 -37 142 -37q92 0 172 90v-211q-63 -100 -176 -100q-49 0 -177 47q-82 31 -120 30 q-94 0 -175 -83z" />
<glyph unicode="&#xf2;" d="M51 504q0 242 157 387t396 145q260 0 399.5 -151.5t139.5 -384.5q-4 -266 -189 -414q-139 -111 -358 -111q-260 0 -402.5 149.5t-142.5 379.5zM303 1399v276l453 -329v-246zM399 506q0 -307 201 -307q88 0 141.5 77.5t55.5 227.5q0 313 -197 313q-94 0 -147.5 -77.5 t-53.5 -233.5z" />
<glyph unicode="&#xf3;" d="M51 504q0 242 157 387t396 145q260 0 399.5 -151.5t139.5 -384.5q-4 -266 -189 -414q-139 -111 -358 -111q-260 0 -402.5 149.5t-142.5 379.5zM399 506q0 -307 201 -307q88 0 141.5 77.5t55.5 227.5q0 313 -197 313q-94 0 -147.5 -77.5t-53.5 -233.5zM412 1102v239 l452 334v-274z" />
<glyph unicode="&#xf4;" d="M51 504q0 242 157 387t396 145q260 0 399.5 -151.5t139.5 -384.5q-4 -266 -189 -414q-139 -111 -358 -111q-260 0 -402.5 149.5t-142.5 379.5zM289 1108v223l309 279l313 -273v-229l-313 235zM399 506q0 -307 201 -307q88 0 141.5 77.5t55.5 227.5q0 313 -197 313 q-94 0 -147.5 -77.5t-53.5 -233.5z" />
<glyph unicode="&#xf5;" d="M51 504q0 242 157 387t396 145q260 0 399.5 -151.5t139.5 -384.5q-4 -266 -189 -414q-139 -111 -358 -111q-260 0 -402.5 149.5t-142.5 379.5zM272 1174v202q76 104 185 105q55 0 149 -43q86 -37 142 -37q92 0 172 90v-211q-63 -100 -177 -100q-49 0 -176 47 q-82 31 -121 30q-94 0 -174 -83zM399 506q0 -307 201 -307q88 0 141.5 77.5t55.5 227.5q0 313 -197 313q-94 0 -147.5 -77.5t-53.5 -233.5z" />
<glyph unicode="&#xf6;" d="M51 504q0 242 157 387t396 145q260 0 399.5 -151.5t139.5 -384.5q-4 -266 -189 -414q-139 -111 -358 -111q-260 0 -402.5 149.5t-142.5 379.5zM242 1337q0 61 42 107.5t105 46.5q66 0 109 -43t43 -111q0 -66 -44 -108.5t-107.5 -42.5t-105.5 42.5t-42 108.5zM399 506 q0 -307 201 -307q88 0 141.5 77.5t55.5 227.5q0 313 -197 313q-94 0 -147.5 -77.5t-53.5 -233.5zM655 1337q0 61 42 107.5t105.5 46.5t107.5 -43t44 -111q0 -66 -44 -108.5t-107.5 -42.5t-105.5 42.5t-42 108.5z" />
<glyph unicode="&#xf7;" horiz-adv-x="1488" d="M166 520v287h1157v-287h-1157zM557 250q0 80 52.5 132t130 52t132 -54t54.5 -132q0 -76 -54.5 -129t-130.5 -53q-78 0 -131 53t-53 131zM559 1075q0 78 52.5 131.5t130 53.5t131 -53.5t53.5 -133.5q0 -78 -52.5 -130t-130 -52t-131 53t-53.5 131z" />
<glyph unicode="&#xf8;" d="M2 68l135 129q-86 125 -86 301q0 236 148 383q156 156 399 155q176 0 317 -88l150 142l129 -140l-143 -137q92 -115 92 -303q0 -242 -152.5 -388.5t-384.5 -146.5q-197 0 -325 86l-146 -137zM383 532q0 -22 6 -96l340 334q-53 55 -147 55q-23 0 -51.5 -11t-64.5 -40 t-59.5 -91t-23.5 -151zM463 242q51 -59 139 -60q76 0 142.5 71t66.5 236q0 41 -10 84z" />
<glyph unicode="&#xf9;" d="M94 317v695h328v-586q0 -104 38 -155.5t124 -51.5q100 0 192 68v725h326v-1012h-326v229l-158 -223q-92 -31 -194 -31q-29 0 -59.5 4.5t-83 24t-91 53t-67.5 101t-29 159.5zM287 1399v276l452 -329v-246z" />
<glyph unicode="&#xfa;" d="M94 317v695h328v-586q0 -104 38 -155.5t124 -51.5q100 0 192 68v725h326v-1012h-326v229l-158 -223q-92 -31 -194 -31q-29 0 -59.5 4.5t-83 24t-91 53t-67.5 101t-29 159.5zM477 1102v239l453 334v-274z" />
<glyph unicode="&#xfb;" d="M94 317v695h328v-586q0 -104 38 -155.5t124 -51.5q100 0 192 68v725h326v-1012h-326v229l-158 -223q-92 -31 -194 -31q-29 0 -59.5 4.5t-83 24t-91 53t-67.5 101t-29 159.5zM289 1108v223l309 279l313 -273v-229l-313 235z" />
<glyph unicode="&#xfc;" d="M94 317v695h328v-586q0 -104 38 -155.5t124 -51.5q100 0 192 68v725h326v-1012h-326v229l-158 -223q-92 -31 -194 -31q-29 0 -59.5 4.5t-83 24t-91 53t-67.5 101t-29 159.5zM244 1337q0 61 42 107.5t105 46.5q66 0 109 -43t43 -111q0 -66 -44 -108.5t-107.5 -42.5 t-105.5 42.5t-42 108.5zM657 1337q0 61 42 107.5t105.5 46.5t107.5 -43t44 -111q0 -66 -44 -108.5t-107.5 -42.5t-105.5 42.5t-42 108.5z" />
<glyph unicode="&#xfd;" horiz-adv-x="1110" d="M0 1012h352l213 -701l213 701h332l-377 -992q-31 -78 -51 -124t-66.5 -110.5t-100.5 -100t-143 -62t-202 -26.5q-78 0 -150 14l82 231q25 -10 62 -10q150 0 213 176zM446 1102v239l453 334v-274z" />
<glyph unicode="&#xfe;" d="M94 -428v1874h334v-639l137 205q74 25 144 24q147 0 249.5 -81t143.5 -193.5t41 -241.5q0 -250 -133 -397.5t-336 -147.5q-121 0 -246 74v-477h-334zM428 270q68 -57 150 -57q96 0 159.5 80t63.5 223q0 145 -64.5 218t-163.5 73q-75 0 -145 -41v-496z" />
<glyph unicode="&#xff;" horiz-adv-x="1110" d="M0 1012h352l213 -701l213 701h332l-377 -992q-31 -78 -51 -124t-66.5 -110.5t-100.5 -100t-143 -62t-202 -26.5q-78 0 -150 14l82 231q25 -10 62 -10q150 0 213 176zM195 1337q0 61 42 107.5t105 46.5q66 0 109 -43t43 -111q0 -66 -44 -108.5t-107.5 -42.5t-105.5 42.5 t-42 108.5zM608 1337q0 61 42 107.5t105.5 46.5t107.5 -43t44 -111q0 -66 -44 -108.5t-107.5 -42.5t-105.5 42.5t-42 108.5z" />
<glyph unicode="&#x152;" horiz-adv-x="2174" d="M63 709q0 240 114 420t290 267t383 87q104 0 266 -37h948v-283h-573v-276h494v-283h-494v-317h688l-172 -287h-901q-123 -37 -248 -37q-354 0 -574.5 205t-220.5 541zM465 719q0 -213 106 -342q113 -139 316 -139q131 0 229 49v874q-115 47 -223 47q-213 0 -320.5 -144 t-107.5 -345z" />
<glyph unicode="&#x153;" horiz-adv-x="1878" d="M51 498q0 256 158 398t389 142q250 0 369 -131q23 23 55.5 46.5t120.5 53t188 29.5q240 0 377 -142t137 -400q0 -27 -2 -41h-694q47 -258 340 -258q147 0 332 73l-150 -256q-143 -37 -286.5 -37t-255 39t-162.5 99q-129 -137 -385 -138q-246 0 -388.5 138.5t-142.5 384.5 zM393 508q0 -154 56.5 -231.5t146.5 -77.5q88 0 147.5 74.5t59.5 252.5q0 35 -7.5 75t-25.5 92t-62 86t-108 34q-111 0 -159 -94t-48 -211zM1141 631h381q0 88 -49.5 146.5t-137.5 58.5q-155 0 -194 -205z" />
<glyph unicode="&#x178;" horiz-adv-x="1449" d="M0 1446h426l311 -567l314 567h399l-535 -916v-530h-380v530zM379 1716q0 59 42 105.5t105.5 46.5t106.5 -43t43 -108.5t-44 -108.5t-106 -43q-63 0 -105 42.5t-42 108.5zM809 1716q0 61 41 106.5t104.5 45.5t106.5 -43t43 -108.5t-44 -108.5t-106 -43q-63 0 -104 42.5 t-41 108.5z" />
<glyph unicode="&#x2c6;" horiz-adv-x="512" d="M-55 1108v223l309 279l313 -273v-229l-313 235z" />
<glyph unicode="&#x2dc;" horiz-adv-x="512" d="M-68 1174v202q76 104 185 105q55 0 149 -43q86 -37 142 -37q92 0 172 90v-211q-63 -100 -177 -100q-49 0 -176 47q-82 31 -121 30q-94 0 -174 -83z" />
<glyph unicode="&#x2000;" horiz-adv-x="998" />
<glyph unicode="&#x2001;" horiz-adv-x="1997" />
<glyph unicode="&#x2002;" horiz-adv-x="998" />
<glyph unicode="&#x2003;" horiz-adv-x="1997" />
<glyph unicode="&#x2004;" horiz-adv-x="665" />
<glyph unicode="&#x2005;" horiz-adv-x="499" />
<glyph unicode="&#x2006;" horiz-adv-x="332" />
<glyph unicode="&#x2007;" horiz-adv-x="332" />
<glyph unicode="&#x2008;" horiz-adv-x="249" />
<glyph unicode="&#x2009;" horiz-adv-x="399" />
<glyph unicode="&#x200a;" horiz-adv-x="110" />
<glyph unicode="&#x2010;" horiz-adv-x="782" d="M4 428l158 225h616l-157 -225h-617z" />
<glyph unicode="&#x2011;" horiz-adv-x="782" d="M4 428l158 225h616l-157 -225h-617z" />
<glyph unicode="&#x2012;" horiz-adv-x="782" d="M4 428l158 225h616l-157 -225h-617z" />
<glyph unicode="&#x2013;" horiz-adv-x="1228" d="M4 428l158 225h1063l-160 -225h-1061z" />
<glyph unicode="&#x2014;" horiz-adv-x="1656" d="M4 428l158 225h1493l-160 -225h-1491z" />
<glyph unicode="&#x2018;" horiz-adv-x="512" d="M8 942l285 504h168l-191 -504h-262z" />
<glyph unicode="&#x2019;" horiz-adv-x="512" d="M51 942l189 504h264l-285 -504h-168z" />
<glyph unicode="&#x201a;" horiz-adv-x="512" d="M51 -213l189 504h264l-285 -504h-168z" />
<glyph unicode="&#x201c;" horiz-adv-x="937" d="M8 942l285 504h168l-191 -504h-262zM436 942l285 504h168l-191 -504h-262z" />
<glyph unicode="&#x201d;" horiz-adv-x="937" d="M51 942l189 504h264l-285 -504h-168zM477 942l191 504h262l-285 -504h-168z" />
<glyph unicode="&#x201e;" horiz-adv-x="937" d="M10 -213l191 504h262l-285 -504h-168zM438 -213l189 504h262l-283 -504h-168z" />
<glyph unicode="&#x2022;" horiz-adv-x="681" d="M43 721q0 123 88 210t213 87t209 -84t84 -209q0 -133 -82 -217t-211 -84q-127 0 -214 86t-87 211z" />
<glyph unicode="&#x2026;" horiz-adv-x="2048" d="M190 126.5q0 63.5 43 108t107 44.5q66 0 109 -43t43 -109t-43 -109t-109 -43q-63 0 -106.5 44t-43.5 107.5zM874 126.5q0 63.5 43.5 108t106.5 44.5t106.5 -44.5t43.5 -107.5q0 -66 -43.5 -109t-106.5 -43t-106.5 44t-43.5 107.5zM1556 126.5q0 63.5 43 108t106.5 44.5 t106.5 -43t43 -109t-43 -109t-106.5 -43t-106.5 44t-43 107.5z" />
<glyph unicode="&#x202f;" horiz-adv-x="399" />
<glyph unicode="&#x2039;" horiz-adv-x="512" d="M2 545l221 317h287l-223 -317l223 -324h-287z" />
<glyph unicode="&#x203a;" horiz-adv-x="512" d="M2 221l221 320l-221 321h285l223 -321l-223 -320h-285z" />
<glyph unicode="&#x205f;" horiz-adv-x="499" />
<glyph unicode="&#x20ac;" horiz-adv-x="1370" d="M119 457v176h117v35q0 59 2 92h-119v180h145q61 238 230.5 361.5t427.5 123.5q211 0 348 -59v-299q-152 84 -312 84q-123 0 -199.5 -47t-121.5 -164h440v-180h-479q-2 -33 -2 -86v-41h481v-176h-444q76 -213 350 -213q82 0 186.5 21.5t173.5 56.5l-139 -314 q-143 -37 -282 -37q-279 0 -441 130t-219 356h-143z" />
<glyph unicode="&#x2122;" horiz-adv-x="1515" d="M43 1292v154h559v-154h-184v-526h-193v526h-182zM616 766l76 680h213l119 -313l121 313h198l89 -680h-181l-53 422l-178 -422h-16l-168 422l-37 -422h-183z" />
<glyph unicode="&#xe000;" horiz-adv-x="1013" d="M0 0v1014h1014v-1014h-1014z" />
<glyph unicode="&#xfb01;" d="M-29 778l125 234h23v75q0 176 99 285t314 109q96 0 195 -25v-242q-59 27 -117 27q-158 0 -157 -180v-49h221v-234h-221v-778h-334v778h-148zM768 1294.5q0 67.5 49 110.5t121 43q68 0 117 -43t49 -111q0 -70 -49 -111.5t-119 -41.5t-119 43t-49 110.5zM772 0v1012h330 v-1012h-330z" />
<glyph unicode="&#xfb02;" d="M-29 778l125 234h23v75q0 176 99 285t314 109q96 0 195 -25v-242q-59 27 -117 27q-158 0 -157 -180v-49h221v-234h-221v-778h-334v778h-148zM770 0v1446h334v-1446h-334z" />
</font>
</defs>
</svg>
