<?xml version="1.0" standalone="no"?>
<!DOCTYPE svg PUBLIC "-//W3C//DTD SVG 1.1//EN" "http://www.w3.org/Graphics/SVG/1.1/DTD/svg11.dtd" >
<svg xmlns="http://www.w3.org/2000/svg">
<metadata></metadata>
<defs>
<font id="delta_jaegeroutline" horiz-adv-x="1236" >
<font-face units-per-em="2048" ascent="1638" descent="-410" />
<missing-glyph horiz-adv-x="641" />
<glyph horiz-adv-x="2048" />
<glyph horiz-adv-x="2048" />
<glyph unicode="&#xd;" horiz-adv-x="681" />
<glyph unicode=" "  horiz-adv-x="641" />
<glyph unicode="&#x09;" horiz-adv-x="641" />
<glyph unicode="&#xa0;" horiz-adv-x="641" />
<glyph unicode="!" horiz-adv-x="598" d="M111 182q0 80 55 140.5t145 60.5q92 0 146.5 -60.5t54.5 -142.5q0 -84 -55.5 -141t-143.5 -57q-90 0 -146 59t-56 141zM111 1446h399l-33 -868l-330 -144q-32 903 -36 1012zM164 182q0 -59 41 -103t108 -44q66 0 106 42t40 103q0 59 -40 104.5t-108 45.5 q-70 0 -108.5 -45t-38.5 -103zM166 1393l33 -879l227 100q25 662 29 779h-289z" />
<glyph unicode="&#x22;" horiz-adv-x="731" d="M41 1522h289l-80 -631h-125zM104 1466l64 -524h39l59 524h-162zM401 1522h289l-80 -631h-125zM465 1466l63 -524h39l60 524h-162z" />
<glyph unicode="#" horiz-adv-x="1368" d="M70 352v285h229l27 188h-203v285h239l50 336h290l-47 -336h170l45 336h291l-45 -336h182v-285h-223l-24 -188h196v-285h-237l-49 -352h-293l51 352h-168l-49 -352h-291l47 352h-188zM121 403h196l-49 -352h189l49 352h272l-51 -352h188l50 352h231v183h-205l39 291h217 v182h-190l45 336h-187l-45 -336h-274l47 336h-186l-49 -336h-234v-182h211l-41 -291h-223v-183zM530 586l41 291h277l-45 -291h-273zM590 637h168l28 188h-170z" />
<glyph unicode="$" horiz-adv-x="1150" d="M98 987q0 213 170 348q18 14 38 26.5t40.5 21t34.5 13.5t33.5 10t25.5 7v254h283v-227q141 -16 278 -82v-348q-154 131 -311 131q-68 0 -113 -31t-45 -88q0 -37 21.5 -64.5t45.5 -41t65 -29.5l143 -64q125 -55 180 -121q88 -109 88 -256q0 -31 -3 -61.5t-23.5 -89.5 t-54 -107.5t-104.5 -98.5t-167 -79v-266h-283v242q-205 18 -340 75v369q178 -141 367 -141q70 0 118 28.5t48 94.5q0 51 -31 79.5t-102 57.5l-135 55q-104 43 -168 111q-98 109 -99 272zM147 96q131 -49 342 -69v-238h185v254q190 49 274 168q76 104 76 235q0 137 -76 224 q-55 61 -162 110l-141 62q-45 18 -72.5 33.5t-58.5 55.5t-31 91q0 66 50.5 115t154.5 49q145 0 264 -84v225q-137 59 -278 70v221h-185v-238q-125 -31 -190 -82q-150 -119 -149 -313q0 -82 23.5 -144.5t67.5 -100.5t72.5 -55t69.5 -34l135 -55q92 -39 127 -73t35 -109 q0 -88 -61.5 -129t-151.5 -41q-158 0 -320 98v-246z" />
<glyph unicode="%" horiz-adv-x="1961" d="M37 954q0 225 115 349q106 115 272 114q197 0 301 -137q90 -123 90 -336q0 -205 -95 -337t-294 -132q-188 0 -288.5 124t-100.5 355zM84 954q0 -205 84 -318.5t258 -113.5q158 0 246 101q96 108 96 321q0 186 -81 306t-263 120q-147 0 -238 -98q-102 -111 -102 -318z M281 952q0 305 151 305q141 0 141 -299q0 -322 -147 -321q-145 0 -145 315zM328 952q0 -268 98 -268q100 0 100 270q0 53 -2 87t-10 79t-29.5 67.5t-54.5 22.5q-102 0 -102 -258zM477 0l752 1399h258l-754 -1399h-256zM555 47h152l700 1305h-150zM1147 455q0 223 112.5 346 t282.5 123q160 0 271.5 -112.5t111.5 -356.5q0 -94 -20.5 -175t-63.5 -151t-121 -108.5t-182 -38.5q-193 0 -293 129q-98 125 -98 344zM1194 457q0 -205 88 -318q84 -111 256 -110q166 0 254 110q86 109 86 316q0 211 -89 316.5t-247 105.5q-154 0 -251 -111t-97 -309z M1389 457q0 307 147 307t147 -299q0 -322 -147 -322t-147 314zM1436 457q0 -266 100 -266t100 274q0 252 -100 252t-100 -260z" />
<glyph unicode="&#x26;" horiz-adv-x="1579" d="M23 410q0 158 94 270.5t252 153.5q-98 109 -99 251q0 164 132.5 281t375.5 117q248 0 382 -119t134 -281q0 -117 -65.5 -214t-177.5 -156l546 -471l-274 -305l-383 337l-143 -270q-156 -41 -262 -41q-231 0 -371.5 127t-140.5 320zM72 410q0 -172 128 -285t335 -113 q90 0 229 35l121 221q-100 -31 -187 -30q-137 0 -216 59t-79 156q0 76 52 129q45 47 145 67l719 -645l207 234l-563 485q283 129 282 360q0 141 -119.5 246t-349.5 105q-219 0 -338 -101.5t-119 -245.5q0 -63 25 -119.5t47.5 -84t67.5 -74.5q-387 -94 -387 -399zM453 453 q0 -72 68.5 -119t174.5 -47q105 -1 197 30l-307 279q-70 -14 -101.5 -56t-31.5 -87zM641 1100q0 74 49 122t125 48q80 0 125 -53.5t45 -124.5q0 -51 -19.5 -92.5t-56.5 -67t-58 -37t-56 -25.5q-154 100 -154 230zM690 1098q0 -98 111 -172q135 53 135 166q0 51 -31 90 t-90 39q-53 0 -89 -35t-36 -88z" />
<glyph unicode="'" horiz-adv-x="370" d="M41 1522h289l-80 -631h-125zM104 1466l64 -524h39l59 524h-162z" />
<glyph unicode="(" horiz-adv-x="653" d="M49 645q0 254 84 501t240 427h309q-264 -438 -264 -930q0 -516 264 -938h-309q-154 182 -239 427t-85 513zM104 645q0 -248 78 -479.5t217 -405.5h187q-223 397 -224 883q0 459 224 875h-187q-139 -170 -217 -404.5t-78 -468.5z" />
<glyph unicode=")" horiz-adv-x="653" d="M-29 -295q264 426 265 930q-1 508 -265 938h310q152 -164 237.5 -419t85.5 -521q0 -256 -85 -504t-238 -424h-310zM68 -240h188q133 170 213 408t80 465q0 246 -79 485.5t-214 399.5h-188q223 -406 223 -883q0 -475 -223 -875z" />
<glyph unicode="*" horiz-adv-x="811" d="M16 1094l76 219l193 -70v203h231v-203l197 70l80 -219l-203 -70l123 -166l-183 -139l-127 174l-120 -174l-191 139l125 166zM84 1126l217 -75l-135 -183l104 -73l131 186l140 -186l98 73l-131 183l215 75l-43 119l-215 -76v224h-129v-224l-211 76z" />
<glyph unicode="+" horiz-adv-x="1482" d="M186 502v368h355v371h399v-371h356v-368h-356v-371h-399v371h-355zM242 557h354v-371h289v371h356v258h-356v371h-289v-371h-354v-258z" />
<glyph unicode="," horiz-adv-x="512" d="M-78 -293l234 637h370l-370 -637h-234zM-4 -240h129l311 531h-243z" />
<glyph unicode="-" horiz-adv-x="854" d="M0 412l184 266h670l-184 -266h-670zM102 465h541l111 160h-543z" />
<glyph unicode="." horiz-adv-x="512" d="M55 182q0 80 55.5 140.5t145.5 60.5q92 0 146.5 -60.5t54.5 -142.5q0 -84 -55.5 -141t-143.5 -57q-90 0 -146.5 59t-56.5 141zM109 182q0 -59 39.5 -103t109.5 -44q66 0 105.5 42t39.5 103q0 59 -39.5 104.5t-107.5 45.5q-70 0 -108.5 -45t-38.5 -103z" />
<glyph unicode="/" horiz-adv-x="894" d="M6 0l510 1446h375l-506 -1446h-379zM82 53h266l467 1340h-260z" />
<glyph unicode="0" horiz-adv-x="1280" d="M39 707q0 330 158.5 526.5t443.5 196.5q158 0 276.5 -58.5t187.5 -160t102.5 -227.5t33.5 -275q0 -158 -32.5 -288t-102.5 -233.5t-188.5 -161t-278.5 -57.5t-278.5 57.5t-187.5 161t-101.5 232.5t-32.5 287zM90 705q0 -145 28.5 -264t91 -216.5t172.5 -152t259.5 -54.5 t259 55.5t171 154t90 217t28.5 264.5q0 100 -15.5 191t-54.5 181t-99 154.5t-157.5 104.5t-222.5 40q-266 0 -408.5 -184t-142.5 -491zM434 700.5q0 456.5 209 456.5q203 1 203 -448q0 -465 -207 -465q-205 0 -205 456.5zM485 700.5q0 -407.5 152 -407.5q158 0 158 416 q0 86 -5.5 147.5t-19.5 123.5t-47 95t-82 33q-156 0 -156 -407.5z" />
<glyph unicode="1" horiz-adv-x="1280" d="M250 793v348l657 276v-1417h-436v887zM301 870l223 95v-912h330v1284l-553 -231v-236z" />
<glyph unicode="2" horiz-adv-x="1280" d="M147 0v326l379 401q63 66 89 106.5t26 96.5q0 29 -8 57.5t-47 60t-105 31.5q-84 0 -152.5 -41t-148.5 -118v401q229 109 430 109q238 0 365 -131.5t127 -307.5q0 -195 -172 -379l-266 -288h581l-233 -324h-865zM197 49h792l166 225h-594l332 371q160 176 160 346 q0 158 -114 273.5t-327 115.5q-168 0 -383 -90v-264q102 102 252 102q109 0 159 -62t50 -136q0 -68 -30.5 -117t-96.5 -119l-366 -389v-256z" />
<glyph unicode="3" horiz-adv-x="1280" d="M180 66v383q168 -141 336 -142q86 0 128 39t42 92q0 143 -225 144q-45 0 -152 -4l193 282q127 14 127 109q0 49 -36 82.5t-110 33.5q-145 0 -274 -137v377q180 104 395 105q217 0 342 -106.5t125 -268.5q0 -68 -21.5 -123t-61.5 -91t-64.5 -53.5t-61.5 -35.5 q141 -33 217 -119t76 -215q0 -201 -157.5 -325t-387.5 -124q-211 0 -430 97zM229 98q227 -80 381 -80q205 0 350.5 109t145.5 291q0 135 -90 208.5t-289 110.5q74 33 115 55.5t89 60.5t69.5 87t21.5 115q0 143 -113.5 234t-302.5 91q-168 0 -348 -84v-239q109 78 225 78 q94 0 144.5 -48.5t50.5 -119.5q0 -123 -148 -154l-124 -184q27 2 69 2q72 0 125 -18.5t77.5 -42t39 -55.5t16.5 -47t2 -30q0 -72 -56 -126t-163 -54q-142 0 -287 94v-254z" />
<glyph unicode="4" horiz-adv-x="1280" d="M-6 281v219l516 899h549v-805h264l-221 -313h-43v-281h-416v281h-649zM47 334h649v-281h310v281h73l156 209h-229v803h-463l-496 -861v-151zM344 541l352 673v-673h-352zM428 594h215v428z" />
<glyph unicode="5" horiz-adv-x="1280" d="M127 72v379q88 -70 194.5 -105t182.5 -35q104 0 150 53.5t46 108.5q0 106 -120 160q-86 39 -236 39q-80 0 -186 -15l125 742h829v-314h-469l-29 -170q154 0 267.5 -43t172 -114.5t85 -146t26.5 -152.5q0 -219 -161.5 -354.5t-430.5 -135.5q-242 0 -446 103zM176 102 q219 -84 397 -84q143 0 253 40t170.5 106.5t90 141.5t29.5 153q0 106 -55 207.5t-187 154.5q-111 45 -319 45l47 269h461v215h-739l-105 -635q117 6 125 6q154 0 254 -43q80 -37 116 -94.5t36 -110.5q0 -78 -61.5 -144.5t-184.5 -66.5q-150 0 -328 96v-256z" />
<glyph unicode="6" horiz-adv-x="1280" d="M59 575q0 252 121 465q119 209 309 359h625q-66 -35 -111 -63.5t-124.5 -88t-147 -139.5t-117.5 -176q82 29 164 29q190 0 318.5 -129.5t128.5 -329.5q0 -225 -153.5 -379t-418.5 -154q-260 0 -427 164t-167 442zM109 575q0 -258 153.5 -407.5t390.5 -149.5 q242 0 382.5 139.5t140.5 346.5q0 180 -114 293.5t-282 113.5q-115 0 -256 -61q160 375 430 500h-448q-397 -324 -397 -775zM451 489q0 109 49 182.5t147 73.5q86 0 139.5 -63.5t53.5 -177.5q0 -133 -58.5 -195.5t-136.5 -62.5q-82 0 -138 61t-56 182zM500 489 q0 -111 45 -152.5t100 -41.5q74 0 110 58.5t36 150.5q0 88 -37 140t-107 52q-55 0 -91 -35.5t-46 -79t-10 -92.5z" />
<glyph unicode="7" horiz-adv-x="1280" d="M150 1085v314h1083l-541 -1399h-465l420 1085h-497zM201 1137h522l-420 -1086h354l500 1297h-956v-211z" />
<glyph unicode="8" horiz-adv-x="1280" d="M61 385q0 262 285 348q-244 76 -244 309q0 178 148.5 283t394.5 105t390.5 -105.5t144.5 -284.5q0 -113 -67.5 -200t-178.5 -107q123 -31 204 -120t81 -224q0 -188 -158 -304t-418 -116q-258 0 -420 110.5t-162 305.5zM111 385q0 -178 152.5 -272.5t379.5 -94.5 q233 0 379.5 99.5t146.5 271.5q0 78 -30.5 137.5t-90 99.5t-113.5 62t-134 47q72 18 120 38t101 53.5t80.5 88t27.5 127.5q0 164 -135 251t-350 87q-217 0 -355 -88t-138 -250q0 -70 23.5 -121t77.5 -87.5t94 -55t122 -49.5q-82 -25 -125 -42t-107.5 -57t-95 -100.5 t-30.5 -144.5zM438 438q0 88 58.5 145.5t148.5 57.5t145.5 -60.5t55.5 -140.5q0 -86 -55.5 -142t-147.5 -56q-90 0 -147.5 56t-57.5 140zM463 977q0 76 48 128t132 52q80 0 129 -51t49 -131q0 -82 -52 -129t-126 -47t-127 48t-53 130zM487 438q0 -61 43 -104t113 -43 q72 0 113 43t41 104.5t-40 107.5t-112 46q-68 0 -113 -43t-45 -111zM512 977q0 -59 38 -94t93 -35q53 0 91 32t38 95q0 59 -35 96t-94 37q-63 0 -97 -38t-34 -93z" />
<glyph unicode="9" horiz-adv-x="1280" d="M55 895q0 227 153.5 381t418.5 154q258 0 426 -163t168 -444q0 -248 -121 -467q-114 -202 -309 -356h-625q61 33 108.5 62.5t126 88t147 139.5t118.5 177q-82 -29 -164 -29q-190 0 -318.5 129t-128.5 328zM104 895q0 -180 115 -294t281 -114q109 0 256 62 q-66 -158 -152 -264q-112 -144 -272 -236h442q178 145 283 332q115 207 114 442q0 258 -153.5 407.5t-390.5 149.5q-242 0 -382.5 -139t-140.5 -346zM440 895q0 102 47.5 180t147.5 78q63 0 106 -28.5t60.5 -74.5t22.5 -78t5 -63q0 -109 -49 -182.5t-147 -73.5 q-86 0 -139.5 63.5t-53.5 178.5zM489 895q0 -88 37 -140.5t107 -52.5q55 0 91 36t46 79t10 92q0 111 -45 153t-100 42q-74 0 -110 -58.5t-36 -150.5z" />
<glyph unicode=":" horiz-adv-x="598" d="M100 182q0 80 55.5 140.5t145.5 60.5q92 0 146.5 -60.5t54.5 -142.5q0 -84 -55.5 -141t-143.5 -57q-90 0 -146.5 59t-56.5 141zM100 829q0 80 55.5 140.5t145.5 60.5q92 0 146.5 -60.5t54.5 -142.5q0 -84 -55.5 -141t-143.5 -57q-90 0 -146.5 59.5t-56.5 140.5zM154 182 q0 -59 39.5 -103t109.5 -44q66 0 106 42t40 103q0 59 -40 104.5t-108 45.5q-70 0 -108.5 -45t-38.5 -103zM154 829q0 -59 39.5 -103t109.5 -44q66 0 106 42t40 103q0 59 -40 104.5t-108 45.5q-70 0 -108.5 -45t-38.5 -103z" />
<glyph unicode=";" horiz-adv-x="598" d="M-76 -293l236 637h370l-370 -637h-236zM0 -240h129l309 531h-241zM154 829q0 80 55 140.5t145 60.5q92 0 146.5 -60.5t54.5 -142.5q0 -84 -55.5 -141t-143.5 -57q-90 0 -146 59.5t-56 140.5zM207 829q0 -59 40 -103t109 -44q66 0 106 42t40 103q0 59 -40 104.5t-108 45.5 q-70 0 -108.5 -45t-38.5 -103z" />
<glyph unicode="&#x3c;" horiz-adv-x="1482" d="M229 528v367l953 442v-393l-561 -219l561 -238v-413zM285 561l841 -399v287l-632 278l632 254v272l-841 -393v-299z" />
<glyph unicode="=" horiz-adv-x="1482" d="M186 244v360h1110v-360h-1110zM186 768v360h1110v-360h-1110zM242 299h999v250h-999v-250zM242 823h999v250h-999v-250z" />
<glyph unicode="&#x3e;" horiz-adv-x="1482" d="M301 74v393l561 219l-561 238v413l952 -454v-367zM356 158l842 393v299l-842 399v-286l633 -279l-633 -254v-272z" />
<glyph unicode="?" horiz-adv-x="894" d="M37 1028v350q197 98 395 99q197 0 328 -101.5t131 -285.5q0 -92 -35 -161t-88 -103.5t-94 -50t-78 -21.5v-176l-367 -148v488q133 6 174 24q80 31 80 105q0 41 -33.5 75.5t-109.5 34.5q-145 0 -303 -129zM90 1133q139 78 250 77q96 0 146.5 -51t50.5 -112 q0 -156 -254 -181v-358l260 106v185q295 41 295 293q0 158 -113 244.5t-293 86.5q-176 0 -342 -77v-213zM211 182q0 80 55.5 140.5t145.5 60.5t145 -59.5t55 -143.5t-55 -141t-143 -57q-90 0 -146.5 59t-56.5 141zM264 182q0 -59 40 -103t110 -44q66 0 105.5 41t39.5 104.5 t-40 106.5t-107 43q-70 0 -109 -45t-39 -103z" />
<glyph unicode="@" horiz-adv-x="1740" d="M63 526q0 412 263.5 673t679.5 261q307 0 487 -165t180 -449q0 -281 -152.5 -488.5t-359.5 -207.5q-45 0 -87 15t-65.5 30.5t-62.5 48.5l-137 -92h-45q-143 0 -226 95t-83 261q0 240 148.5 401.5t369.5 161.5q160 0 346 -76l-76 -346q-37 -164 -37 -227q0 -53 37 -53 q29 0 66 47q141 182 141 422q0 205 -125 312t-352 107q-283 0 -478.5 -203.5t-195.5 -514.5q0 -272 167 -431t454 -159q412 0 673 244l-77 -306q-319 -154 -623 -153q-375 0 -602.5 218t-227.5 574zM119 526q0 -332 212 -535.5t562 -203.5q299 0 575 137l33 131 q-248 -160 -581 -159q-311 0 -493.5 175t-182.5 468q0 334 212 552t517 218q248 0 388 -121t140 -350q0 -258 -149 -451q-53 -68 -109 -68q-92 0 -92 103q0 57 41 240l65 303q-154 55 -284 55q-197 0 -330 -147.5t-133 -364.5q0 -141 68.5 -224t185.5 -83h29l168 106 q29 -41 88 -73.5t112 -32.5q184 0 321.5 193.5t137.5 451.5q0 260 -164 411.5t-450 151.5q-399 0 -643 -247t-244 -636zM666 539q0 154 82.5 263t201.5 109q50 1 148 -32l-99 -482q-90 -74 -159 -73q-78 0 -126 57t-48 158zM719 539q0 -76 33.5 -121t87.5 -45q57 0 112 51 l84 422q-49 16 -86 16q-100 0 -165.5 -95t-65.5 -228z" />
<glyph unicode="A" horiz-adv-x="1579" d="M0 0l567 1446h451l561 -1446h-485l-76 238h-477l-84 -238h-457zM78 53h342l84 236h553l76 -236h368l-518 1340h-379zM555 440l240 715l209 -715h-449zM629 494h303l-144 479z" />
<glyph unicode="B" horiz-adv-x="1366" d="M90 0v1446h703q115 0 198 -27q115 -37 197 -132t82 -234q0 -209 -189 -301q47 -25 80 -48.5t73 -63.5t61.5 -98.5t21.5 -129.5q0 -199 -162 -318q-129 -94 -332 -94h-733zM139 49h652q129 0 210 23q113 33 190 124t77 216q0 68 -23.5 122t-70 95t-89.5 66.5t-106 56.5 q242 96 242 301q0 150 -115 247q-51 43 -114.5 66t-112 27t-127.5 4h-613v-1348zM479 266v910h203q92 0 157.5 -41t65.5 -136q0 -49 -20.5 -84.5t-53 -53t-62.5 -25t-60 -9.5l-119 -161h108q98 0 157.5 -57.5t59.5 -143.5q0 -100 -69.5 -149.5t-169.5 -49.5h-197zM528 315 h136q203 0 202 150q0 156 -221 156h-117v-306zM528 655l156 222q88 0 130 33.5t42 88.5q0 127 -201 127h-127v-471z" />
<glyph unicode="C" horiz-adv-x="1366" d="M49 702q0 154 54.5 293.5t159 250t273.5 175t382 64.5q164 0 380 -49v-381q-139 102 -317 102q-217 0 -339 -128t-122 -310q0 -188 130 -314t354 -126h4q172 0 358 79l-207 -358q-131 -37 -287 -37q-373 0 -598 208t-225 531zM104 702q0 -309 213 -497.5t547 -188.5 q164 0 258 29l129 219q-137 -39 -239 -39q-260 0 -403.5 144.5t-143.5 349.5q0 203 137 347t381 144q127 0 262 -57v240q-186 39 -327 39q-203 0 -363 -61.5t-256 -166t-145.5 -232.5t-49.5 -270z" />
<glyph unicode="D" horiz-adv-x="1536" d="M88 0v1446h698q203 0 361 -84q164 -86 252 -249t88 -376q0 -322 -193 -526q-68 -72 -143.5 -119t-155.5 -64.5t-130 -22.5t-120 -5h-657zM141 53h596q90 0 158 7.5t174.5 53.5t183.5 132q178 195 179 493q0 295 -172 473q-80 80 -182.5 123t-168 50.5t-155.5 7.5h-613 v-1340zM487 283v880h152q59 0 98 -4t100.5 -33.5t110.5 -85.5q111 -125 111 -315q0 -209 -123 -332q-70 -70 -144.5 -90t-179.5 -20h-125zM541 336h71q135 0 205 35q94 45 140.5 143t46.5 211q0 172 -97 281q-59 68 -120.5 86t-147.5 18h-98v-774z" />
<glyph unicode="E" horiz-adv-x="1193" d="M90 0v1446h987v-344h-530v-197h452v-340h-452v-219h647l-195 -346h-909zM143 53h826l143 242h-618v323h452v234h-452v303h530v238h-881v-1340z" />
<glyph unicode="F" horiz-adv-x="1110" d="M90 0v1446h1020v-342h-557v-244h469v-342h-469v-518h-463zM143 53h357v518h469v236h-469v350h557v236h-914v-1340z" />
<glyph unicode="G" horiz-adv-x="1622" d="M47 713q0 152 57.5 289t165 245.5t280.5 172t388 63.5q250 0 489 -72v-381q-193 131 -415 131q-225 0 -360.5 -127t-135.5 -317q0 -186 113.5 -317.5t322.5 -131.5q74 0 162 25v231h-313l164 305h575v-723q-356 -143 -655 -143q-391 0 -614.5 207t-223.5 543zM102 713 q0 -172 60.5 -304.5t146.5 -204t201 -116.5t203 -58.5t172 -13.5q281 0 602 125v635h-490l-112 -198h282v-324q-123 -39 -213 -39q-231 0 -362 145.5t-131 354.5q0 213 150.5 356t402.5 143q180 0 362 -94v250q-217 59 -438 60q-205 0 -368.5 -59.5t-263 -161t-152 -228.5 t-52.5 -268z" />
<glyph unicode="H" horiz-adv-x="1536" d="M90 0v1446h459v-516h438v516h459v-1446h-459v584h-438v-584h-459zM143 53h353v584h544v-584h353v1340h-353v-516h-544v516h-353v-1340z" />
<glyph unicode="I" horiz-adv-x="641" d="M90 0v1446h461v-1446h-461zM143 53h355v1340h-355v-1340z" />
<glyph unicode="J" horiz-adv-x="1024" d="M0 23l178 319q70 -33 133 -33q100 0 142 84q22 45 22 171v11v871h459v-932q0 -63 -3 -103t-17.5 -101.5t-50.5 -116t-93 -101.5q-154 -129 -416 -129q-182 0 -354 60zM78 53q143 -37 274 -37q246 0 383 117q68 55 101.5 128t39 122t5.5 131v879h-353v-818 q0 -145 -28 -204q-51 -115 -189 -115q-43 0 -108 18z" />
<glyph unicode="K" horiz-adv-x="1536" d="M90 0v1446h459v-653l430 653h508l-455 -653l535 -793h-523l-495 739v-739h-459zM143 53h353v1340h-353v-1340zM594 768l479 -715h397l-501 740l420 600h-381z" />
<glyph unicode="L" horiz-adv-x="1193" d="M86 0v1446h461v-1096h647l-203 -350h-905zM139 53h822l143 244h-610v1096h-355v-1340z" />
<glyph unicode="M" horiz-adv-x="1921" d="M31 0l162 1446h456l305 -715l316 715h454l166 -1446h-452l-56 811l-405 -811h-49l-393 811l-58 -811h-446zM86 49h344l72 940l450 -928l463 924l70 -936h350l-154 1348h-378l-351 -791l-336 791h-380z" />
<glyph unicode="N" horiz-adv-x="1622" d="M90 0v1446h373l618 -680v680h451v-1446h-313l-676 713v-713h-453zM139 49h355v780l745 -780h244v1348h-353v-750l-690 750h-301v-1348z" />
<glyph unicode="O" horiz-adv-x="1705" d="M49 725q0 336 219 547t588 211q373 0 588 -215t215 -537q0 -344 -225.5 -556t-577.5 -212q-385 0 -596 217t-211 545zM104 725q0 -307 196 -508t556 -201q338 0 539 199q209 203 209 516q0 299 -199 499t-549 200q-344 0 -548 -196t-204 -509zM475 733q0 213 108.5 339 t272.5 126q180 0 278.5 -134t98.5 -331q0 -203 -100.5 -340t-276.5 -137t-278.5 130t-102.5 347zM530 733q0 -186 84 -305t242 -119q154 0 238 123t84 301q0 168 -81 290t-241 122q-143 0 -234.5 -111.5t-91.5 -300.5z" />
<glyph unicode="P" horiz-adv-x="1323" d="M90 0v1446h690q74 0 126 -5t129 -33t139 -79q150 -125 149 -328q0 -209 -146.5 -326.5t-361.5 -117.5h-266v-557h-459zM143 53h353v1127h215q78 0 144.5 -51.5t66.5 -147.5q0 -162 -174 -190l-132 -185h187q190 0 328.5 99.5t138.5 295.5q0 180 -131 289 q-121 102 -391 103h-605v-1340zM549 594l172 250q57 0 102 33.5t45 103.5q0 145 -198 145h-121v-532z" />
<glyph unicode="Q" horiz-adv-x="1705" d="M49 725q0 328 223.5 543t588 215t581.5 -213t217 -543q0 -268 -150 -463l193 -194l-281 -281l-231 234q-156 -59 -328 -60q-193 0 -349.5 62.5t-256.5 169t-153.5 242.5t-53.5 288zM104 725q0 -141 49.5 -267t141.5 -225.5t239.5 -158t329.5 -58.5q156 0 342 70l215 -219 l203 205l-186 188q45 55 72.5 98t60.5 146.5t33 222.5q0 305 -200 504t-546 199q-342 0 -548 -199t-206 -506zM481 725q0 225 109.5 349t271.5 124q164 0 267.5 -127t103.5 -350q0 -193 -100.5 -329t-274.5 -136q-164 0 -270.5 126t-106.5 343zM537 727q0 -201 91 -309.5 t228 -108.5q154 0 238 123t84 289q0 193 -85 308.5t-231 115.5q-141 0 -233 -111.5t-92 -306.5z" />
<glyph unicode="R" horiz-adv-x="1492" d="M90 0v1446h774q78 0 153 -22.5t143.5 -68.5t110.5 -129t42 -190q0 -80 -25.5 -147.5t-66.5 -110.5t-69 -65.5t-54 -36.5l413 -676h-497l-357 600h-118v-600h-449zM143 53h342v1129h240q82 0 139.5 -46t57.5 -135q0 -72 -46.5 -124t-146.5 -60l-123 -170h84l354 -594h373 l-393 641q233 127 233 344q0 176 -122.5 266.5t-294.5 90.5h-697v-1342zM539 635l163 235q76 0 121 35t45 99q0 78 -54 101t-146 23h-129v-493z" />
<glyph unicode="S" horiz-adv-x="1150" d="M84 55v377q98 -80 208.5 -114.5t184.5 -34.5q88 0 132 35.5t44 95.5q0 41 -24.5 69.5t-49 41t-75.5 30.5l-76 29q-344 131 -344 426q0 80 30.5 158.5t92 151.5t174.5 118t260 45q211 0 397 -90v-361q-55 51 -149 93t-193 42q-45 0 -78.5 -12t-49 -27.5t-23.5 -36 t-9 -28.5t-1 -16q0 -27 6 -43.5t41.5 -43t107.5 -55.5l111 -45q309 -127 309 -416q0 -207 -154.5 -344t-412.5 -137q-234 0 -459 92zM135 90q211 -74 410 -74q236 0 374 123t138 303q0 256 -277 369l-159 66q-139 55 -140 170q0 61 50.5 117.5t166.5 56.5q137 0 289 -86v225 q-197 70 -344 70q-244 0 -375 -124t-131 -296q0 -135 90 -232.5t219 -144.5l78 -29q41 -16 62.5 -26.5t55.5 -33t49.5 -55t15.5 -75.5q0 -78 -57.5 -131.5t-172.5 -53.5q-147 1 -342 105v-244z" />
<glyph unicode="T" d="M-2 1100v346h1241v-346h-387v-1100h-461v1100h-393zM51 1153h393v-1100h355v1100h387v240h-1135v-240z" />
<glyph unicode="U" horiz-adv-x="1579" d="M90 530v916h457v-811q0 -66 2 -98.5t12 -75.5t31 -74q63 -94 205 -94q125 0 188 88q23 31 33 69.5t12 68.5t2 87v840h457v-871q0 -209 -64 -331q-145 -281 -641 -281q-133 0 -241.5 23.5t-179 59.5t-123 88t-81 101.5t-45 110t-20.5 101t-4 83.5zM143 543 q0 -274 176 -404q166 -123 465 -123q221 0 365 56q96 37 158.5 98t88 136t33 129t7.5 124v834h-351v-787q0 -59 -2 -92t-15 -80t-40 -84q-79 -110 -228 -110h-3q-170 0 -250 116q-25 37 -37 87.5t-14 86t-2 105.5v758h-351v-850z" />
<glyph unicode="V" horiz-adv-x="1579" d="M0 1446h502l301 -893l307 893h469l-592 -1446h-403zM74 1397l544 -1348h336l551 1348h-360l-342 -991l-338 991h-391z" />
<glyph unicode="W" horiz-adv-x="2091" d="M0 1446h487l144 -832l403 832h53l394 -832l155 832h455l-328 -1446h-411l-297 653l-287 -653h-412zM63 1397l332 -1348h342l316 721l329 -721h340l308 1348h-353l-178 -934l-438 923l-451 -923l-166 934h-381z" />
<glyph unicode="X" horiz-adv-x="1492" d="M0 0l498 756l-455 690h510l203 -313l194 313h514l-460 -690l489 -756h-516l-234 369l-245 -369h-498zM92 49h379l272 410l261 -410h399l-459 707l428 641h-393l-221 -355l-234 355h-389l422 -641z" />
<glyph unicode="Y" horiz-adv-x="1492" d="M0 1446h516l244 -492l248 492h485l-516 -928v-518h-461v518zM84 1397l481 -867v-481h363v481l481 867h-371l-280 -547l-273 547h-401z" />
<glyph unicode="Z" horiz-adv-x="1409" d="M51 0v338l678 760h-627v350h1207v-348l-670 -752h770l-203 -348h-1155zM102 51h1076l145 248h-793l727 817v281h-1103v-250h684l-736 -828v-268z" />
<glyph unicode="[" horiz-adv-x="663" d="M113 -295v1868h536v-273h-174v-1323h174v-272h-536zM168 -240h426v162h-174v1434h174v162h-426v-1758z" />
<glyph unicode="\" horiz-adv-x="894" d="M6 1446h373l512 -1446h-381zM84 1391l465 -1336h266l-475 1336h-256z" />
<glyph unicode="]" horiz-adv-x="663" d="M14 -25h174v1323h-174v275h537v-1868h-537v270zM70 -80v-160h426v1758h-426v-164h174v-1434h-174z" />
<glyph unicode="^" horiz-adv-x="1482" d="M139 571l422 875h377l408 -875h-428l-181 445l-196 -445h-402zM229 623h277l233 524l215 -524h303l-354 770h-307z" />
<glyph unicode="_" horiz-adv-x="1024" d="M-41 -231h1106v-56h-1106v56zM-41 -436h1106v-56h-1106v56z" />
<glyph unicode="`" horiz-adv-x="641" d="M82 1397v313l477 -340v-283zM131 1425l379 -243v161l-379 269v-187z" />
<glyph unicode="a" horiz-adv-x="1110" d="M12 291q0 61 21.5 116.5t70 110.5t147.5 89t236 34q80 0 166 -14q-16 168 -227 168q-152 0 -328 -86l172 295q163 32 278 32h7q211 0 332 -82q61 -43 94 -98t38 -89t5 -81v-686h-369v174l-151 -192q-61 -6 -98 -7q-195 0 -294.5 89.5t-99.5 226.5zM63 295 q0 -127 87.5 -198.5t255.5 -71.5q47 0 77 2l129 147q-63 -14 -100 -14q-78 0 -129 42t-51 109.5t55 117.5t168 50q70 0 147 -18v-412h273v621q0 164 -117 245q-104 72 -309 72q-106 0 -246 -26l-104 -168q102 51 231 51q76 0 131 -21.5t82 -49.5t41 -72t16 -69.5t2 -64.5 q-119 25 -217 25q-31 0 -55 -2t-80.5 -9.5t-100.5 -26.5t-89 -50t-71 -85t-26 -124zM383 311q0 -55 41 -80.5t96 -25.5h5q64 0 130 24v191q-49 10 -98 10q-174 0 -174 -119z" />
<glyph unicode="b" d="M84 98v1348h401v-670l166 250q61 10 107 10q209 0 324.5 -145.5t115.5 -347.5q0 -166 -78 -303q-152 -264 -518 -265q-231 0 -518 123zM133 131q266 -106 469 -106q137 0 242.5 42t161 101t89 137t43 133.5t9.5 106.5q0 195 -105.5 318.5t-277.5 123.5q-43 0 -84 -6 l-143 -190q49 16 88 16q109 0 163 -89t54 -196q0 -55 -12.5 -106t-39 -101.5t-77.5 -80t-119 -29.5q-70 0 -158 53v1139h-303v-1266zM485 287q47 -33 111 -33q102 0 148.5 79t46.5 189q0 100 -46.5 171t-138.5 71q-66 0 -121 -41v-436z" />
<glyph unicode="c" horiz-adv-x="980" d="M39 510q0 219 155.5 372.5t432.5 153.5q172 0 311 -59v-318q-102 106 -236 107q-109 0 -180 -71.5t-71 -182.5q0 -115 74.5 -197t215.5 -82q106 0 242 52l-158 -279q-123 -31 -231 -31q-266 0 -410.5 159t-144.5 376zM90 510q0 -90 30 -174t89 -155.5t159.5 -113.5 t227.5 -42q92 0 197 24l100 164q-76 -29 -150 -29q-162 0 -253 95.5t-91 232.5q0 133 86 218t217 85q105 0 187 -59v188q-145 43 -260 43q-260 0 -399.5 -141t-139.5 -336z" />
<glyph unicode="d" d="M39 498q0 231 129 384.5t330 153.5q131 0 254 -82v492h401v-1446h-401v233l-162 -233q-78 -25 -139 -25q-195 0 -303.5 157t-108.5 366zM90 502q0 -197 94.5 -337t264.5 -140q57 0 112 16l135 174q-35 -14 -73 -14q-121 0 -173.5 91t-52.5 205.5t41 190.5q66 121 195 121 q84 0 168 -74v-686h303v1348h-303v-537q-59 43 -91 64.5t-90.5 42t-119.5 20.5q-182 0 -296 -139t-114 -346zM449 500q0 -113 53 -184.5t133 -71.5q56 0 117 39v430q-53 47 -119 47q-88 0 -136 -71t-48 -189z" />
<glyph unicode="e" horiz-adv-x="1193" d="M39 504q0 229 144.5 380.5t414.5 151.5q289 0 434 -166q127 -145 127 -442h-696q57 -201 317 -201q176 0 344 74l-168 -293q-168 -33 -303 -33q-150 0 -265.5 38t-179 93.5t-104.5 131t-53 138t-12 128.5zM86 504q0 -225 147 -354q141 -127 422 -127q119 0 271 26 l108 174q-145 -43 -254 -43q-133 0 -219 47q-137 76 -160 248h711q-4 78 -9 121t-32 114.5t-76 127.5q-130 151 -394 151h-3q-254 0 -383 -139t-129 -346zM395 578q2 145 69.5 214.5t153.5 69.5q115 0 164 -83t49 -177v-24h-436zM449 625h333q-2 61 -22.5 103t-50 58.5 t-51 22.5t-40.5 6q-66 0 -112.5 -48t-56.5 -142z" />
<glyph unicode="f" horiz-adv-x="768" d="M-25 733l134 279h22q0 186 53 278q111 193 410 193q121 0 225 -29v-285q-63 29 -121 29q-74 0 -120 -43t-46 -119v-24h230v-279h-230v-733h-401v733h-156zM55 782h125v-733h303v733h232v181h-232v77q0 102 61.5 154.5t147.5 52.5q31 0 80 -12v180q-102 18 -184 19 q-186 0 -291 -88q-117 -98 -117 -295v-88h-41z" />
<glyph unicode="g" d="M39 492q0 236 161.5 390t454.5 154h4q242 0 494 -108v-764q0 -154 -51 -269.5t-140.5 -183t-199 -100.5t-236.5 -33q-217 0 -430 66v336q178 -129 373 -130q219 0 274 164q20 61 21 197v84l-174 -246q-37 -10 -84 -10q-213 0 -340 122t-127 331zM90 492q0 -109 38 -191 t99.5 -126t128 -65.5t136.5 -21.5q25 0 73 4l146 195q-49 -23 -93 -23q-88 0 -154.5 69.5t-66.5 198.5q0 123 70 198t180 75q84 0 162 -49v-545q0 -154 -18 -213q-31 -92 -114 -144.5t-208 -52.5q-147 0 -324 88v-208q238 -53 377 -54q268 0 414 127q168 146 168 410v731 q-268 92 -445 92q-156 0 -271.5 -45t-178 -121t-91 -158.5t-28.5 -170.5zM449 530q0 -104 51 -162.5t135 -58.5q55 0 125 33v385q-45 29 -111 29q-94 0 -147 -62.5t-53 -163.5z" />
<glyph unicode="h" d="M84 0v1446h403v-686l162 256q111 20 170 20q170 0 256 -88q78 -80 78 -250v-698h-387v459q0 121 -4 155q-8 61 -40 97.5t-54.5 41.5t-42.5 5q-57 0 -138 -56v-702h-403zM133 49h305v1348h-305v-1348zM539 776q61 27 98 27q57 0 108.5 -44t63.5 -138q6 -61 6 -162v-410 h289v649q0 150 -64 215q-72 74 -219 74q-49 0 -147 -16z" />
<glyph unicode="i" horiz-adv-x="555" d="M78 0v1012h397v-1012h-397zM78 1306.5q0 79.5 59.5 128t139 48.5t139 -48.5t59.5 -128t-57.5 -128t-141.5 -48.5q-82 0 -140 48.5t-58 128zM127 49h299v914h-299v-914zM127 1307q0 -61 45 -94t104.5 -33t104.5 33t45 94q0 59 -45 93t-102 34q-61 0 -106.5 -35t-45.5 -92z " />
<glyph unicode="j" horiz-adv-x="555" d="M80 -416v1428h395v-1205zM80 1307q0 80 59.5 128t139 48t138 -48.5t58.5 -128t-57.5 -128t-141.5 -48.5q-82 0 -139 47.5t-57 129.5zM129 -332l297 168v1127h-297v-1295zM129 1307q0 -61 45 -94t102 -33q59 0 104.5 33t45.5 94q0 59 -45 93t-102 34q-59 0 -104.5 -35 t-45.5 -92z" />
<glyph unicode="k" d="M84 0v1446h405v-860l299 426h443l-320 -451l357 -561h-459l-320 530v-530h-405zM133 49h307v1348h-307v-1348zM526 559l310 -510h344l-326 514l283 400h-322z" />
<glyph unicode="l" horiz-adv-x="555" d="M76 0v1446h401v-1446h-401zM125 49h303v1348h-303v-1348z" />
<glyph unicode="m" horiz-adv-x="1961" d="M84 0v1012h401v-242l168 238q99 30 191 30h6q147 0 233 -67q82 -63 99 -201l168 238q97 30 198 30h6q162 0 254 -92q70 -76 70 -237v-709h-401v539q0 109 -31 163t-123 54q-70 0 -141 -47v-709h-402v561q0 92 -31.5 142.5t-119.5 50.5q-68 0 -144 -45v-709h-401zM133 49 h303v914h-303v-914zM528 770q68 31 115 31q109 0 147.5 -63.5t38.5 -168.5v-520h304v676q0 31 -2.5 54.5t-17.5 66.5t-42 70.5t-84 50t-137 22.5q-72 0 -170 -24zM1227 770q66 33 112 33q186 0 187 -248v-506h303v660q0 47 -2 73.5t-15.5 63.5t-39.5 65q-72 78 -216 78 q-96 0 -180 -24z" />
<glyph unicode="n" d="M84 0v1012h389v-256l186 252q75 28 166 28h6q160 0 244 -90q78 -84 78 -254v-692h-389v547q0 203 -156 203q-72 0 -135 -58v-692h-389zM133 49h291v914h-291v-914zM526 768q53 25 103 25q96 0 140 -63.5t44 -166.5v-514h291v643q0 147 -66 219q-72 76 -209 76 q-53 0 -141 -20z" />
<glyph unicode="o" d="M39 506q0 229 157.5 379.5t426.5 150.5q256 0 415.5 -140t159.5 -378q0 -72 -15.5 -141.5t-55.5 -144t-103 -130t-169.5 -91.5t-242.5 -36q-152 0 -267.5 48.5t-180 128t-95 169t-30.5 185.5zM90 506q0 -236 148.5 -358.5t371.5 -122.5q123 0 219.5 30.5t154.5 79.5 t96 116.5t52.5 132t14.5 134.5q0 217 -144.5 343t-379.5 126q-248 0 -390.5 -136t-142.5 -345zM403 512q0 317 218 317q213 0 213 -317q0 -90 -18.5 -154.5t-43 -96.5t-58.5 -49t-53.5 -20.5t-39.5 -3.5q-217 0 -218 324zM455 510q0 -272 166 -272q161 0 161 274 q0 268 -161 268q-166 0 -166 -270z" />
<glyph unicode="p" d="M84 -428v1440h403v-228l158 228q57 24 127 24h6q193 0 306.5 -143t113.5 -371q0 -266 -139 -406.5t-318 -140.5q-121 0 -254 78v-481h-403zM133 -379h305v522q63 -41 96 -60.5t90.5 -38.5t114.5 -19q166 0 287 130t121 367q0 195 -94.5 330t-274.5 135q-41 0 -106 -16 l-131 -172q47 14 80 14q86 0 153.5 -73.5t67.5 -223.5q0 -147 -68.5 -228t-163.5 -81q-78 0 -172 78v678h-305v-1342zM487 307q63 -51 125 -51q76 0 127.5 69.5t51.5 190.5q0 135 -57.5 194.5t-133.5 59.5q-54 0 -113 -33v-430z" />
<glyph unicode="q" d="M39 473q0 106 35 203.5t103.5 179.5t185 131t266.5 49q252 0 524 -121v-1343h-401v668l-166 -250q-61 -14 -117 -15q-184 0 -307 138.5t-123 359.5zM90 473q0 -53 9.5 -107.5t37 -118t69.5 -111.5t115.5 -79.5t167.5 -31.5q41 0 68 10l139 184q-45 -18 -82 -18 q-90 0 -155.5 77.5t-65.5 223.5q0 135 67.5 220t182.5 85q80 0 158 -57v-1129h303v1262q-274 104 -477 104q-141 0 -250 -46t-168 -123t-89 -164t-30 -181zM444 500q0 -121 52.5 -187.5t132.5 -66.5q49 0 123 43v434q-55 35 -109 35q-98 0 -148.5 -76t-50.5 -182z" />
<glyph unicode="r" horiz-adv-x="854" d="M84 0v1012h401v-234l158 234q86 23 209 24v-393q-137 111 -244 111q-64 0 -123 -33v-721h-401zM133 49h303v914h-303v-914zM543 786q51 14 80 15q111 0 180 -68v252q-74 -6 -131 -16z" />
<glyph unicode="s" horiz-adv-x="894" d="M53 705q0 125 102.5 228t317.5 103h5q174 0 337 -75v-289q-115 121 -258 121q-55 0 -79.5 -26t-24.5 -54q0 -53 100 -92l119 -46q202 -76 202 -264q0 -149 -119.5 -242.5t-314.5 -93.5q-217 0 -379 80v291q176 -115 295 -115q55 0 84 25t29 57q0 59 -104 95l-103 34 q-209 70 -209 263zM100 705q0 -156 179 -218l100 -34q137 -47 137 -140q0 -49 -42 -89t-118 -40q-113 0 -247 82v-182q168 -61 331 -61q182 0 284.5 79.5t102.5 206.5q0 156 -172 223l-118 46q-131 49 -131 135q0 47 38.5 87t112.5 40q115 0 211 -70v160q-143 59 -297 59 q-158 0 -264.5 -74.5t-106.5 -209.5z" />
<glyph unicode="t" horiz-adv-x="768" d="M-53 733l133 279h29v176l389 121v-297h237v-279h-237v-280q0 -92 35.5 -147.5t136.5 -55.5h5q54 0 136 22l-190 -276q-109 -20 -177 -21q-336 0 -335 326v432h-162zM27 784h133v-483q0 -274 291 -274q88 0 141 16l127 170q-47 -10 -62 -10q-68 0 -113.5 23.5t-65 65.5 t-26 81t-6.5 90v321h240v177h-237v278l-289 -90v-188h-49z" />
<glyph unicode="u" d="M84 324v688h393v-561q0 -88 27.5 -137.5t105.5 -49.5q70 0 154 60v688h389v-1012h-389v266l-180 -262q-86 -29 -168 -29q-147 0 -238 84q-94 88 -94 265zM133 324q0 -141 71.5 -220t213.5 -79q49 0 137 20l158 207q-66 -35 -115 -35q-170 0 -170 234v512h-295v-639z M813 49h291v914h-291v-914z" />
<glyph unicode="v" horiz-adv-x="1193" d="M0 1012h436l168 -647l168 647h422l-375 -1012h-442zM70 963l342 -914h372l340 914h-313l-207 -754l-207 754h-327z" />
<glyph unicode="w" horiz-adv-x="1748" d="M0 1014h414l102 -641l191 641h354l164 -641l129 641h395l-258 -1014h-447l-172 549l-165 -549h-453zM59 967l232 -920h381l200 643l205 -643h379l234 920h-297l-162 -768l-207 768h-283l-239 -768l-129 768h-314z" />
<glyph unicode="x" horiz-adv-x="1193" d="M0 0l350 537l-323 477h430l147 -242l148 242h409l-317 -477l350 -537h-440l-162 262l-156 -262h-436zM86 47h324l182 307l188 -307h328l-320 490l285 430h-295l-174 -287l-174 287h-315l291 -430z" />
<glyph unicode="y" horiz-adv-x="1193" d="M0 1012h416l192 -662l191 662h395l-369 -963q-45 -115 -82.5 -183.5t-107.5 -137t-176.5 -100t-257.5 -31.5q-98 0 -183 18l101 270q29 -14 69 -14q86 0 134.5 49t58.5 92zM72 963l362 -951q-25 -84 -88 -136t-149 -52q-12 0 -50 4l-63 -176q59 -6 113 -6q141 0 237 26.5 t160.5 87t102.5 127t81 179.5l346 897h-288l-228 -768l-229 768h-307z" />
<glyph unicode="z" horiz-adv-x="1110" d="M66 0v279l456 448h-428v287h940v-287l-450 -442h526l-164 -285h-880zM113 47h805l112 193h-555l512 505v222h-846v-195h492l-520 -512v-213z" />
<glyph unicode="{" horiz-adv-x="712" d="M12 522v234q76 8 110 22.5t51 58.5t17 132v268q0 193 60.5 264.5t251.5 71.5h196v-234q-100 0 -123.5 -38.5t-23.5 -178.5v-211q0 -117 -39 -179t-131 -97q88 -27 129 -90.5t41 -184.5v-225q0 -117 23.5 -159t123.5 -42v-231h-180q-195 0 -261.5 63.5t-66.5 262.5v280 q0 125 -32.5 163t-145.5 50zM68 571q100 -18 139 -70t39 -192v-280q0 -164 55 -217.5t217 -53.5h125v123q-96 12 -121.5 67.5t-25.5 186.5v225q0 113 -49.5 171.5t-204.5 101.5q156 47 205 108.5t49 169.5v211q0 160 24.5 211.5t122.5 59.5v125h-141q-156 0 -206 -60.5 t-50 -220.5v-268q0 -150 -36 -198t-142 -64v-136z" />
<glyph unicode="|" horiz-adv-x="583" d="M119 -295v1868h346v-1868h-346zM174 -240h236v1758h-236v-1758z" />
<glyph unicode="}" horiz-adv-x="712" d="M14 -61q100 0 124 38.5t24 178.5v211q0 117 39 179t131 97q-88 27 -129 90.5t-41 184.5v225q0 117 -23.5 158.5t-124.5 41.5v232h181q195 0 261 -63.5t66 -262.5v-280q0 -125 33 -163t145 -50v-234q-76 -8 -109.5 -22.5t-51 -58.5t-17.5 -132v-268q0 -193 -60.5 -264.5 t-250.5 -71.5h-197v234zM70 -115v-125h141q156 0 206 60.5t50 220.5v268q0 150 36 198t142 64v136q-100 18 -139 70t-39 192v280q0 164 -55.5 217.5t-216.5 53.5h-125v-123q96 -12 121.5 -67.5t25.5 -186.5v-225q0 -113 49 -171.5t205 -101.5q-156 -47 -205 -108.5 t-49 -169.5v-211q0 -160 -24.5 -211.5t-122.5 -59.5z" />
<glyph unicode="~" horiz-adv-x="1482" d="M176 426v401q119 139 273 140q96 0 239 -68l127 -59q111 -51 199 -52q70 0 133 39t160 138v-400q-133 -154 -306 -153q-100 0 -262 77l-71 35q-133 63 -211 64q-76 0 -139.5 -36t-141.5 -126zM229 549q109 94 228 94q94 0 235 -70l70 -34q145 -72 229 -72q78 0 137 25.5 t127 97.5v256q-121 -113 -241 -113q-104 0 -221 55l-129 60q-137 63 -215 63q-121 0 -220 -108v-254z" />
<glyph unicode="&#xa1;" horiz-adv-x="598" d="M86 0q31 823 33 868l332 146l36 -1014h-401zM86 1266q0 84 55.5 141t143.5 57t144 -59t56 -141q0 -80 -54 -140.5t-144 -60.5q-92 0 -146.5 60.5t-54.5 142.5zM139 1265.5q0 -61.5 39 -105.5t107 -44q70 0 108.5 45t38.5 103q0 59 -41 103t-106.5 44t-105.5 -42 t-40 -103.5zM141 53h291l-33 879l-229 -98z" />
<glyph unicode="&#xa2;" horiz-adv-x="1077" d="M80 506q0 104 31.5 197.5t121 179.5t224.5 123v254h280v-230q152 -8 254 -59v-314q-109 102 -243 103q-115 0 -187 -71t-72 -183q0 -121 85 -197t221 -76q96 0 245 52l-159 -279q-68 -16 -144 -20v-242h-280v260q-139 37 -228.5 126t-119 181t-29.5 195zM131 506 q0 -162 84 -279q102 -143 291 -186v-252h182v240q98 4 160 18l96 164q-33 -12 -55 -16q-45 -8 -86 -9q-172 0 -267.5 92.5t-95.5 227.5q0 129 85 216t225 87q100 0 194 -57v188q-104 39 -256 45v225h-182v-241q-106 -27 -182 -78q-86 -59 -139.5 -159.5t-53.5 -225.5z" />
<glyph unicode="&#xa3;" horiz-adv-x="1445" d="M86 547v293h248q0 88 6 143t42 141t105 152q160 154 443 154q184 0 327 -54v-360q-113 92 -251 92q-117 0 -185 -64q-74 -68 -73 -204h350v-293h-350v-230h659l-184 -317h-1073l184 317v230h-248zM135 596h248v-293l-147 -254h958l129 219h-625v328h351v195h-351v77 q0 135 88 213q84 76 222 76q94 0 200 -51v235q-129 39 -276 39q-264 0 -410 -141q-61 -59 -94 -132t-39 -123t-6 -118v-75h-248v-195z" />
<glyph unicode="&#xa4;" horiz-adv-x="1433" d="M45 219l168 168q-90 133 -90 303q0 164 88 314l-164 163l195 195l164 -164q137 88 313 88q164 0 305 -88l166 166l196 -197l-165 -163q86 -145 86 -308q0 -164 -88 -313l165 -168l-196 -195l-166 168q-147 -86 -305 -86q-168 0 -311 91l-166 -168zM123 219l117 -117 l157 160q143 -104 320 -104q164 0 313 100l158 -160l117 117l-156 160q102 154 102 321q0 166 -100 316l158 155l-119 119l-158 -158q-147 102 -313 103q-178 0 -320 -105l-157 158l-117 -117l156 -155q-102 -152 -103 -322q0 -172 107 -309zM391 694q0 139 94.5 234.5 t231.5 95.5t230 -96.5t93 -235.5q0 -135 -94 -230t-229 -95q-137 0 -231.5 95t-94.5 232zM446 694.5q0 -114.5 78 -193.5t193 -79q113 0 190.5 78.5t77.5 191.5q0 117 -78 197t-190.5 80t-191.5 -80t-79 -194.5z" />
<glyph unicode="&#xa5;" horiz-adv-x="1544" d="M51 1399h514l226 -467l229 467h483l-289 -512h164v-254h-303l-49 -90h352v-248h-374v-295h-453v295h-379v248h360l-49 90h-311v254h166zM135 1350l287 -512h-199v-156h291l98 -184h-389v-156h377v-291h354v291h373v156h-383l105 184h278v156h-194l284 512h-366l-263 -521 l-253 521h-400z" />
<glyph unicode="&#xa6;" horiz-adv-x="583" d="M119 -295v799h346v-799h-346zM119 770v803h346v-803h-346zM174 -240h236v689h-236v-689zM174 825h236v693h-236v-693z" />
<glyph unicode="&#xa7;" horiz-adv-x="1067" d="M27 492q0 121 63.5 214t173.5 148q-113 119 -112 272q0 170 140 263.5t324 93.5q156 0 351 -72v-371q-111 129 -248 129q-49 0 -88 -25.5t-39 -72.5q0 -68 96 -115l113 -57q240 -121 239 -338q0 -219 -223 -358q98 -127 98 -246q0 -55 -22.5 -115.5t-70.5 -126 t-145 -107.5t-226 -42q-201 0 -361 76v368q145 -125 258 -125q55 0 93 28t38 81q0 45 -47 77.5t-113.5 60.5t-132 66t-112.5 112.5t-47 181.5zM76 496q0 -100 47 -168t112.5 -101.5t132 -61.5t113.5 -69t47 -100q0 -76 -53 -118t-129 -42q-98 0 -207 76v-240 q176 -57 314 -57q119 0 205.5 38t128.5 95t60.5 108.5t18.5 96.5q0 76 -30.5 133t-94.5 131q121 68 185.5 145.5t64.5 198.5q0 98 -60.5 175t-150.5 120l-86 41q-152 74 -151 176q0 68 53 107t123 39q95 0 199 -68v227q-180 55 -302 56q-164 0 -288.5 -83t-124.5 -239 q0 -55 22.5 -107.5t46 -82t72.5 -82.5q-268 -121 -268 -344zM350 553q0 125 146 205q96 -41 154.5 -93.5t58.5 -138.5q0 -63 -43 -121.5t-103 -95.5q-49 27 -79.5 45.5t-65.5 48t-51.5 67.5t-16.5 83zM399 553q0 -35 13.5 -63.5t40 -52t48 -37t58.5 -33.5q100 82 100 159 q0 59 -49 107.5t-112 68.5q-98 -59 -99 -149z" />
<glyph unicode="&#xa8;" horiz-adv-x="641" d="M-55 1341q0 66 45 114t114 48q72 0 118 -46t46 -115.5t-48 -115.5t-116 -46q-70 0 -114.5 45.5t-44.5 115.5zM-4 1341q0 -47 30.5 -78.5t78 -31.5t80 31.5t32.5 79t-31.5 79t-81.5 31.5q-47 0 -77.5 -33t-30.5 -78zM375 1341q0 66 45 114t115 48q72 0 117.5 -46 t45.5 -115.5t-48 -115.5t-115 -46q-70 0 -115 45.5t-45 115.5zM426 1341q0 -47 30.5 -78.5t78 -31.5t80 31.5t32.5 79t-31.5 79t-80.5 31.5q-47 0 -78 -33t-31 -78z" />
<glyph unicode="&#xa9;" horiz-adv-x="1705" d="M125 727q0 305 212 515t517 210q309 0 519 -212t210 -521q0 -303 -214 -514t-517 -211q-305 0 -516 213t-211 520zM180 727q0 -283 194.5 -480.5t477.5 -197.5q281 0 478.5 194.5t197.5 475.5q0 287 -194.5 482.5t-479.5 195.5q-283 0 -478.5 -193.5t-195.5 -476.5z M438 727q0 209 135.5 338t352.5 129q147 0 254 -55v-277q-96 94 -192.5 94t-159 -65.5t-62.5 -165.5q0 -109 70.5 -175.5t183.5 -66.5q79 0 192 45l-129 -249q-90 -23 -186 -23q-203 0 -331 132t-128 339zM492 727q0 -182 113.5 -301t291.5 -119q101 1 156 19l63 123 q-45 -16 -96 -17q-139 0 -224 81t-85 212q0 125 76.5 203t199.5 78q86 0 150 -41v137q-66 41 -211 41q-193 0 -313.5 -116t-120.5 -300z" />
<glyph unicode="&#xaa;" horiz-adv-x="724" d="M20 985q0 96 68 154q78 70 231 69q59 0 117 -10q-8 113 -149 113q-96 0 -203 -54l100 183q86 23 187 22q139 0 215 -51q41 -29 61.5 -71t23.5 -73.5t3 -82.5v-391h-238v112l-100 -125q-45 -4 -66 -4q-51 0 -104 15q-145 43 -146 194zM70 983q0 -86 61.5 -126t138.5 -40 q21 0 41 4l56 66q-156 0 -156 108q0 51 40 83t116 32q53 0 112 -14v-258h148v346q0 70 -12.5 113.5t-57.5 74.5q-68 47 -199 47q-74 0 -147 -18l-41 -74q70 25 123 25q129 0 166 -76q20 -41 20 -129q-98 20 -162 20q-106 0 -176.5 -45t-70.5 -139zM258 993q0 -68 96 -67 q43 0 82 14v123q-27 6 -59 6q-119 0 -119 -76z" />
<glyph unicode="&#xab;" horiz-adv-x="1067" d="M0 549l221 319h338l-221 -319l221 -324h-338zM66 549l184 -270h211l-189 270l187 266h-209zM508 549l221 319h338l-223 -319l223 -324h-338zM571 549l187 -270h209l-187 272l187 264h-209z" />
<glyph unicode="&#xac;" horiz-adv-x="1482" d="M166 502v368h1110v-739h-399v371h-711zM221 557h711v-371h289v629h-1000v-258z" />
<glyph unicode="&#xad;" horiz-adv-x="854" d="M0 412l184 266h670l-184 -266h-670zM102 465h541l111 160h-543z" />
<glyph unicode="&#xae;" horiz-adv-x="1705" d="M125 727q0 305 212 515t517 210q309 0 519 -212t210 -521q0 -303 -214 -514t-517 -211q-305 0 -516 213t-211 520zM180 727q0 -283 194.5 -480.5t477.5 -197.5q281 0 478.5 194.5t197.5 475.5q0 287 -194.5 482.5t-479.5 195.5q-283 0 -478.5 -193.5t-195.5 -476.5z M487 283v876h449q311 0 311 -248q0 -70 -39 -128t-110 -91l227 -409h-299l-195 364h-67v-364h-277zM539 330h174v678h147q150 0 150 -121q0 -104 -121 -125l-60 -78h39l189 -354h182l-207 375q162 76 162 206q0 37 -7 63.5t-29.5 61.5t-80 53.5t-143.5 18.5h-395v-778z M764 668l96 143q96 0 96 76q0 72 -92 71h-100v-290z" />
<glyph unicode="&#xaf;" horiz-adv-x="641" d="M-10 1214v248h663v-248h-663zM39 1264h565v149h-565v-149z" />
<glyph unicode="&#xb0;" horiz-adv-x="724" d="M10 1173.5q0 147.5 102.5 250t249.5 102.5q145 0 249 -104.5t104 -247.5q0 -158 -105.5 -256.5t-247.5 -98.5q-147 0 -249.5 103.5t-102.5 251zM66 1174q0 -123 88 -211.5t208 -88.5q119 0 208 84.5t89 215.5q0 121 -87 208.5t-209.5 87.5t-209.5 -86t-87 -210zM195 1178 q0 70 49 119t118 49q72 0 121 -49.5t49 -119t-49 -119.5t-118.5 -50t-119.5 49t-50 121zM250 1177.5q0 -47.5 33.5 -81t81 -33.5t80 33.5t32.5 81t-33.5 80t-81 32.5t-80 -32.5t-32.5 -80z" />
<glyph unicode="&#xb1;" horiz-adv-x="1482" d="M184 821v369h355v344h399v-344h356v-369h-356v-344h-399v344h-355zM186 0v369h1110v-369h-1110zM240 877h354v-345h289v345h356v258h-356v344h-289v-344h-354v-258zM242 55h999v258h-999v-258z" />
<glyph unicode="&#xb2;" horiz-adv-x="854" d="M102 496v209l232 239q88 92 88 154q0 16 -5 34.5t-31 39t-69 20.5q-92 0 -194 -98v254q147 70 278 69q154 0 236 -85t82 -197q0 -129 -111 -248l-170 -180h373l-149 -211h-560zM150 543h487l88 121h-379l229 256q96 109 97 215q0 96 -68.5 165.5t-200.5 69.5 q-100 0 -235 -53v-131q80 53 149 53q78 0 115 -42t37 -95q0 -80 -86 -170l-233 -242v-147z" />
<glyph unicode="&#xb3;" horiz-adv-x="854" d="M121 539v245q106 -90 221 -90q31 0 52.5 8.5t31.5 18.5t15 24.5t6.5 20.5t1.5 12q0 45 -40 68.5t-98 23.5q-74 0 -104 -4l123 185q82 6 82 69q0 14 -4.5 28.5t-27 31t-61.5 16.5q-96 0 -178 -88v242q123 68 254 67q80 0 140.5 -21.5t90 -50t47 -66.5t21.5 -60.5t4 -42.5 q0 -125 -137 -197q94 -23 142.5 -83t48.5 -134q0 -111 -91.5 -199t-254.5 -88q-150 0 -285 64zM166 567q111 -45 237 -45q145 0 223.5 75t78.5 165q0 43 -18.5 77.5t-40 54t-60.5 36t-60.5 21.5t-58.5 14q53 29 85 49t65.5 65t33.5 97q0 88 -66.5 141t-185.5 53 q-115 0 -213 -47v-125q68 45 133 45q70 0 105 -37t35 -86q0 -94 -105 -114l-67 -95q37 4 43 4q78 0 122 -40.5t44 -96.5q0 -47 -35 -89t-121 -42t-174 53v-133z" />
<glyph unicode="&#xb4;" horiz-adv-x="641" d="M82 1092v274l477 344v-311zM131 1184l379 243v187l-379 -273v-157z" />
<glyph unicode="&#xb6;" horiz-adv-x="1304" d="M127 1006q0 203 135 329q70 63 151 87t226 24h500v-209h-74v-1579h-219v1579h-182v-1579h-222v940q-154 39 -234.5 144.5t-80.5 263.5zM182 1006q0 -295 316 -371v-924h110v1577h293v-1577h109v1577h73v105h-446q-135 0 -207 -21.5t-131 -77.5q-117 -111 -117 -288z" />
<glyph unicode="&#xb7;" horiz-adv-x="512" d="M55 557q0 80 55.5 140.5t145.5 60.5q92 0 146.5 -60.5t54.5 -142.5q0 -84 -55.5 -141.5t-143.5 -57.5q-90 0 -146.5 59.5t-56.5 141.5zM109 557q0 -59 39.5 -103t109.5 -44q66 0 105.5 42t39.5 103q0 59 -39.5 104.5t-107.5 45.5q-70 0 -108.5 -45.5t-38.5 -102.5z" />
<glyph unicode="&#xb8;" horiz-adv-x="641" d="M104 -377q160 6 160 98q0 90 -102 97l86 196h196l-55 -114q68 -16 107 -67.5t39 -125.5q0 -117 -105.5 -186.5t-325.5 -71.5v174zM154 -420v-82q170 8 250.5 64.5t80.5 144.5q0 59 -41 106.5t-120 53.5l45 100h-88l-54 -119q86 -35 86 -124q0 -55 -38.5 -95.5 t-120.5 -48.5z" />
<glyph unicode="&#xb9;" horiz-adv-x="854" d="M178 1006v225l426 178v-915h-282v571zM223 1075l146 62v-596h188v798l-334 -139v-125z" />
<glyph unicode="&#xba;" horiz-adv-x="811" d="M31 1120q0 147 101 244.5t276 97.5q166 0 269 -91t103 -245q0 -59 -17.5 -115.5t-56 -111.5t-117.5 -89t-188 -34q-188 0 -279 102.5t-91 241.5zM80 1118q0 -78 31 -139q77 -158 290 -158q143 0 232 76q98 82 98 229q0 137 -91 214t-232 77q-154 0 -241 -85t-87 -214z M250 1124q0 92 41 148.5t117 56.5q153 0 153 -205q0 -84 -36 -147.5t-117.5 -63.5t-119.5 60.5t-38 150.5zM299 1124q0 -168 109 -168q104 0 104 168q0 162 -104 162q-49 0 -79 -41t-30 -121z" />
<glyph unicode="&#xbb;" horiz-adv-x="1067" d="M0 225l221 320l-221 323h338l221 -323l-221 -320h-338zM98 815l189 -270l-187 -266h209l185 266l-185 270h-211zM508 225l221 320l-221 323h338l221 -323l-221 -320h-338zM606 815l189 -270l-187 -266h209l184 266l-184 270h-211z" />
<glyph unicode="&#xbc;" horiz-adv-x="1961" d="M201 1006v225l426 178v-915h-283v571zM246 1071l145 62v-592h189v798l-334 -139v-129zM453 0l751 1399h258l-753 -1399h-256zM530 47h152l700 1305h-149zM1065 180v142l334 583h354v-524h170l-141 -201h-29v-180h-268v180h-420zM1112 227h420v-180h176v180h49l76 109 h-127v522h-281l-313 -549v-82zM1290 336l240 426v-426h-240zM1370 381h117v223z" />
<glyph unicode="&#xbd;" horiz-adv-x="1961" d="M178 1006v225l426 178v-915h-282v571zM223 1071l146 62v-592h188v798l-334 -139v-129zM430 0l752 1399h258l-754 -1399h-256zM508 47h151l701 1305h-150zM1202 0v209l232 240q88 92 88 153q0 16 -5.5 34.5t-31 39t-68.5 20.5q-92 0 -194 -98v254q147 70 278 70 q154 0 236 -85t82 -198q0 -129 -111 -248l-170 -180h373l-150 -211h-559zM1249 47h488l88 121h-379l229 256q96 109 97 215q0 96 -69 165.5t-200 69.5q-100 0 -235 -53v-131q80 53 149 53q78 0 115 -42t37 -95q0 -80 -86 -170l-234 -241v-148z" />
<glyph unicode="&#xbe;" horiz-adv-x="1961" d="M127 539v245q106 -90 221 -90q31 0 52.5 8.5t31.5 18.5t15.5 24.5t6.5 20.5t1 12q0 45 -40 69.5t-97.5 24.5t-104.5 -6l123 185q82 6 82 69q0 14 -4 28.5t-26.5 31t-61.5 16.5q-97 0 -179 -88v242q123 68 254 67q80 0 140.5 -21.5t90.5 -50t47 -66.5t21.5 -60.5 t4.5 -42.5q0 -141 -138 -197q94 -23 142.5 -83t48.5 -134q0 -111 -91.5 -199t-254.5 -88q-150 0 -285 64zM170 567q117 -47 240 -47q145 0 223 76t78 166q0 43 -18.5 77.5t-40 54t-60.5 36t-60.5 21.5t-58.5 14q184 90 184 211q0 88 -66.5 142t-184.5 54q-113 0 -216 -49 v-127q68 45 136 45q70 0 104.5 -36t34.5 -85q0 -94 -107 -114l-67 -95q37 4 43 4q78 0 123 -40.5t45 -96.5q0 -47 -35 -88t-121 -41q-90 0 -176 51v-133zM487 0l752 1399h258l-754 -1399h-256zM565 47h152l700 1305h-149zM1094 180v142l333 583h355v-524h170l-142 -201h-28 v-180h-269v180h-419zM1141 227h420v-180h176v180h49l76 109h-127v522h-281l-313 -549v-82zM1319 336l240 426v-426h-240zM1399 381h117v223z" />
<glyph unicode="&#xbf;" horiz-adv-x="894" d="M4 356q0 123 70 213q75 100 227 125v174l367 148v-486q-254 -4 -254 -129q0 -41 33.5 -75.5t109.5 -34.5q145 0 303 129v-352q-197 -98 -395 -99q-213 0 -337 108.5t-124 278.5zM57 356q0 -55 20.5 -109t63.5 -106.5t128 -85t198 -32.5q180 0 340 79v213 q-143 -78 -250 -77q-96 0 -146.5 51t-50.5 112q0 154 254 181v356l-260 -104v-185q-297 -33 -297 -293zM283 1266q0 84 55 141t143 57q90 0 146.5 -59t56.5 -141q0 -80 -55.5 -140.5t-145.5 -60.5q-88 0 -144 58.5t-56 144.5zM336 1265.5q0 -61.5 40 -105.5t107 -44 q70 0 109 45t39 103q0 59 -41 103t-109 44q-66 0 -105.5 -42t-39.5 -103.5z" />
<glyph unicode="&#xc0;" horiz-adv-x="1579" d="M0 0l567 1446h451l561 -1446h-485l-76 238h-477l-84 -238h-457zM78 53h342l84 236h553l76 -236h368l-518 1340h-379zM498 1741v282l575 -262v-239zM547 1774l477 -181v136l-477 219v-174zM555 440l240 715l209 -715h-449zM629 494h303l-144 479z" />
<glyph unicode="&#xc1;" horiz-adv-x="1579" d="M0 0l567 1446h451l561 -1446h-485l-76 238h-477l-84 -238h-457zM78 53h342l84 236h553l76 -236h368l-518 1340h-379zM555 440l240 715l209 -715h-449zM565 1522v239l576 262v-282zM614 1591l478 183v172l-478 -217v-138zM629 494h303l-144 479z" />
<glyph unicode="&#xc2;" horiz-adv-x="1579" d="M0 0l567 1446h451l561 -1446h-485l-76 238h-477l-84 -238h-457zM78 53h342l84 236h553l76 -236h368l-518 1340h-379zM432 1520v235l350 213l357 -213v-235l-357 170zM481 1597l301 148l308 -150v131l-310 185l-299 -182v-132zM555 440l240 715l209 -715h-449zM629 494 h303l-144 479z" />
<glyph unicode="&#xc3;" horiz-adv-x="1579" d="M0 0l567 1446h451l561 -1446h-485l-76 238h-477l-84 -238h-457zM78 53h342l84 236h553l76 -236h368l-518 1340h-379zM436 1573v221q80 111 205 111q59 0 166 -41q115 -43 156 -43q106 0 188 96v-236q-74 -102 -193 -102q-55 0 -204 49q-88 29 -127 29q-102 0 -191 -84z M485 1665q57 41 142 41q49 0 143 -31q143 -47 188 -47q95 1 144 64v116q-49 -37 -139 -36q-51 0 -175 47q-98 37 -147 36q-96 0 -156 -71v-119zM555 440l240 715l209 -715h-449zM629 494h303l-144 479z" />
<glyph unicode="&#xc4;" horiz-adv-x="1579" d="M0 0l567 1446h451l561 -1446h-485l-76 238h-477l-84 -238h-457zM78 53h342l84 236h553l76 -236h368l-518 1340h-379zM393 1731q0 68 47 119t117 51q72 0 119 -48.5t47 -122t-48 -121.5t-118 -48t-117 49t-47 121zM444 1731q0 -51 32 -85t81 -34t82 33.5t33 85t-33 85 t-82 33.5q-47 0 -80 -35.5t-33 -82.5zM555 440l240 715l209 -715h-449zM629 494h303l-144 479zM848 1731q0 68 46 119t116 51q72 0 120 -48.5t48 -122t-49.5 -121.5t-119 -48t-115.5 49t-46 121zM899 1731q0 -51 32 -85t79 -34q49 0 82.5 33.5t33.5 85t-32.5 85t-83.5 33.5 q-47 0 -79 -35.5t-32 -82.5z" />
<glyph unicode="&#xc5;" horiz-adv-x="1579" d="M0 0l567 1446h451l561 -1446h-485l-76 238h-477l-84 -238h-457zM78 53h342l84 236h553l76 -236h368l-518 1340h-379zM537 1765.5q0 104.5 72.5 176t181 71.5t180 -72t71.5 -176q0 -106 -70.5 -175.5t-181 -69.5t-182 70.5t-71.5 175zM555 440l240 715l209 -715h-449z M588 1765q0 -86 57 -143t145.5 -57t146.5 57t58 143q0 84 -58 141.5t-146 57.5q-86 0 -144.5 -57.5t-58.5 -141.5zM629 494h303l-144 479zM655 1765q0 57 38 96.5t98 39.5q61 0 98 -37.5t37 -98.5q0 -59 -37 -97t-98.5 -38t-98.5 38t-37 97zM705 1765q0 -39 23.5 -65.5 t62 -26.5t62.5 26.5t24 65.5t-24 64.5t-62.5 25.5t-62 -26.5t-23.5 -63.5z" />
<glyph unicode="&#xc6;" horiz-adv-x="2260" d="M2 0l887 1446h1247v-342h-541v-197h461v-340h-461v-217h666l-205 -350h-899v305h-485l-180 -305h-490zM96 53h365l180 305h567v-305h820l149 246h-635v322h461v233h-461v303h541v236h-1163zM764 569l444 752v-752h-444zM856 623h301v520z" />
<glyph unicode="&#xc7;" horiz-adv-x="1366" d="M49 702q0 154 54.5 293.5t159 250t273.5 175t382 64.5q164 0 380 -49v-381q-139 102 -317 102q-217 0 -339 -128t-122 -310q0 -188 130 -314t354 -126q174 0 362 79l-207 -358q-125 -35 -252 -37l-28 -65q147 -39 147 -199q0 -119 -107.5 -191.5t-330.5 -74.5v178 q166 8 166 102q0 92 -109 99l72 161q-309 43 -488.5 242t-179.5 487zM104 702q0 -289 192.5 -475t498.5 -209l-80 -174q92 -35 92 -131q0 -125 -168 -147v-82q172 8 254 66.5t82 148.5q0 148 -166 166l68 151q152 0 245 29l129 219q-137 -39 -239 -39q-260 0 -403.5 144.5 t-143.5 349.5q0 203 137 347t381 144q127 0 262 -57v240q-186 39 -327 39q-203 0 -363 -61.5t-256 -166t-145.5 -232.5t-49.5 -270z" />
<glyph unicode="&#xc8;" horiz-adv-x="1193" d="M90 0v1446h987v-344h-530v-197h452v-340h-452v-219h647l-195 -346h-909zM143 53h826l143 242h-618v323h452v234h-452v303h530v238h-881v-1340zM195 1741v282l575 -262v-239zM244 1774l477 -181v136l-477 219v-174z" />
<glyph unicode="&#xc9;" horiz-adv-x="1193" d="M90 0v1446h987v-344h-530v-197h452v-340h-452v-219h647l-195 -346h-909zM143 53h826l143 242h-618v323h452v234h-452v303h530v238h-881v-1340zM379 1522v239l575 262v-282zM428 1591l477 183v172l-477 -217v-138z" />
<glyph unicode="&#xca;" horiz-adv-x="1193" d="M90 0v1446h987v-344h-530v-197h452v-340h-452v-219h647l-195 -346h-909zM143 53h826l143 242h-618v323h452v234h-452v303h530v238h-881v-1340zM250 1520v235l350 213l356 -213v-235l-356 170zM299 1597l301 148l307 -150v131l-309 185l-299 -182v-132z" />
<glyph unicode="&#xcb;" horiz-adv-x="1193" d="M90 0v1446h987v-344h-530v-197h452v-340h-452v-219h647l-195 -346h-909zM143 53h826l143 242h-618v323h452v234h-452v303h530v238h-881v-1340zM201 1731q0 68 47 119t117 51q72 0 118.5 -48.5t46.5 -122t-48 -121.5t-117.5 -48t-116.5 49t-47 121zM252 1731 q0 -51 31.5 -85t81 -34t82 33.5t32.5 85t-32.5 85t-81.5 33.5q-47 0 -80 -35.5t-33 -82.5zM655 1731q0 68 46.5 119t115.5 51q72 0 120 -48.5t48 -122t-49 -121.5t-118.5 -48t-116 49t-46.5 121zM707 1731q0 -51 31.5 -85t78.5 -34q49 0 83 33.5t34 85t-33 85t-84 33.5 q-47 0 -78.5 -35.5t-31.5 -82.5z" />
<glyph unicode="&#xcc;" horiz-adv-x="641" d="M4 1741v282l576 -262v-239zM53 1774l477 -181v136l-477 219v-174zM90 0v1446h461v-1446h-461zM143 53h355v1340h-355v-1340z" />
<glyph unicode="&#xcd;" horiz-adv-x="641" d="M63 1522v239l576 262v-282zM90 0v1446h461v-1446h-461zM113 1591l477 183v172l-477 -217v-138zM143 53h355v1340h-355v-1340z" />
<glyph unicode="&#xce;" horiz-adv-x="641" d="M-31 1520v235l350 213l357 -213v-235l-357 170zM18 1597l301 148l308 -150v131l-310 185l-299 -182v-132zM90 0v1446h461v-1446h-461zM143 53h355v1340h-355v-1340z" />
<glyph unicode="&#xcf;" horiz-adv-x="641" d="M-74 1731q0 68 47 119t117 51q72 0 119 -48.5t47 -122t-48 -121.5t-118 -48t-117 49t-47 121zM-23 1731q0 -51 32 -85t81 -34t82 33.5t33 85t-33 85t-82 33.5q-47 0 -80 -35.5t-33 -82.5zM90 0v1446h461v-1446h-461zM143 53h355v1340h-355v-1340zM381 1731q0 68 46 119 t116 51q72 0 120 -48.5t48 -122t-49.5 -121.5t-119 -48t-115.5 49t-46 121zM432 1731q0 -51 32 -85t79 -34q49 0 82.5 33.5t33.5 85t-32.5 85t-83.5 33.5q-47 0 -79 -35.5t-32 -82.5z" />
<glyph unicode="&#xd0;" horiz-adv-x="1536" d="M0 621v251h88v574h715q307 0 495.5 -193.5t188.5 -515t-193 -526.5q-197 -211 -557 -211h-649v621h-88zM53 674h88v-621h596q338 0 518 193q74 80 125.5 208t51.5 283q0 297 -172 475q-178 180 -482 181h-637v-574h-88v-145zM487 283v391h275v145h-275v344h158 q190 0 301 -123q113 -125 113 -315q0 -203 -110.5 -322.5t-280.5 -119.5h-181zM541 336h86q88 0 146 16.5t122 79.5q109 109 109 293q0 168 -99 281q-92 104 -260 104h-104v-238h274v-251h-274v-285z" />
<glyph unicode="&#xd1;" horiz-adv-x="1622" d="M90 0v1446h373l618 -680v680h451v-1446h-313l-676 713v-713h-453zM139 49h355v780l745 -780h244v1348h-353v-750l-690 750h-301v-1348zM463 1573v221q80 111 205 111q57 0 166 -41q115 -43 155 -43q107 0 189 96v-236q-74 -102 -193 -102q-55 0 -205 49q-88 29 -127 29 q-102 0 -190 -84zM512 1665q57 41 141 41q49 0 144 -31q143 -47 188 -47q94 1 143 64v116q-49 -37 -139 -36q-51 0 -174 47q-98 37 -147 36q-96 0 -156 -71v-119z" />
<glyph unicode="&#xd2;" horiz-adv-x="1705" d="M49 725q0 336 219 547t588 211q373 0 588 -215t215 -537q0 -344 -225.5 -556t-577.5 -212q-385 0 -596 217t-211 545zM104 725q0 -307 196 -508t556 -201q338 0 539 199q209 203 209 516q0 299 -199 499t-549 200q-344 0 -548 -196t-204 -509zM475 733q0 213 108.5 339 t272.5 126q180 0 278.5 -134t98.5 -331q0 -203 -100.5 -340t-276.5 -137t-278.5 130t-102.5 347zM530 733q0 -186 84 -305t242 -119q154 0 238 123t84 301q0 168 -81 290t-241 122q-143 0 -234.5 -111.5t-91.5 -300.5zM557 1741v282l576 -262v-239zM606 1774l477 -181v136 l-477 219v-174z" />
<glyph unicode="&#xd3;" horiz-adv-x="1705" d="M49 725q0 336 219 547t588 211q373 0 588 -215t215 -537q0 -344 -225.5 -556t-577.5 -212q-385 0 -596 217t-211 545zM104 725q0 -307 196 -508t556 -201q338 0 539 199q209 203 209 516q0 299 -199 499t-549 200q-344 0 -548 -196t-204 -509zM475 733q0 213 108.5 339 t272.5 126q180 0 278.5 -134t98.5 -331q0 -203 -100.5 -340t-276.5 -137t-278.5 130t-102.5 347zM530 733q0 -186 84 -305t242 -119q154 0 238 123t84 301q0 168 -81 290t-241 122q-143 0 -234.5 -111.5t-91.5 -300.5zM588 1522v239l575 262v-282zM637 1591l477 183v172 l-477 -217v-138z" />
<glyph unicode="&#xd4;" horiz-adv-x="1705" d="M49 725q0 336 219 547t588 211q373 0 588 -215t215 -537q0 -344 -225.5 -556t-577.5 -212q-385 0 -596 217t-211 545zM104 725q0 -307 196 -508t556 -201q338 0 539 199q209 203 209 516q0 299 -199 499t-549 200q-344 0 -548 -196t-204 -509zM475 733q0 213 108.5 339 t272.5 126q180 0 278.5 -134t98.5 -331q0 -203 -100.5 -340t-276.5 -137t-278.5 130t-102.5 347zM500 1520v235l350 213l356 -213v-235l-356 170zM530 733q0 -186 84 -305t242 -119q154 0 238 123t84 301q0 168 -81 290t-241 122q-143 0 -234.5 -111.5t-91.5 -300.5z M549 1597l301 148l307 -150v131l-309 185l-299 -182v-132z" />
<glyph unicode="&#xd5;" horiz-adv-x="1705" d="M49 725q0 336 219 547t588 211q373 0 588 -215t215 -537q0 -344 -225.5 -556t-577.5 -212q-385 0 -596 217t-211 545zM104 725q0 -307 196 -508t556 -201q338 0 539 199q209 203 209 516q0 299 -199 499t-549 200q-344 0 -548 -196t-204 -509zM475 733q0 213 108.5 339 t272.5 126q180 0 278.5 -134t98.5 -331q0 -203 -100.5 -340t-276.5 -137t-278.5 130t-102.5 347zM510 1573v221q80 111 205 111q59 0 166 -41q115 -43 155 -43q107 0 189 96v-236q-74 -102 -193 -102q-55 0 -205 49q-88 29 -127 29q-102 0 -190 -84zM530 733q0 -186 84 -305 t242 -119q154 0 238 123t84 301q0 168 -81 290t-241 122q-143 0 -234.5 -111.5t-91.5 -300.5zM559 1665q57 41 141 41q49 0 144 -31q143 -47 188 -47q95 1 144 64v116q-49 -37 -140 -36q-51 0 -174 47q-98 37 -147 36q-96 0 -156 -71v-119z" />
<glyph unicode="&#xd6;" horiz-adv-x="1705" d="M49 725q0 336 219 547t588 211q373 0 588 -215t215 -537q0 -344 -225.5 -556t-577.5 -212q-385 0 -596 217t-211 545zM104 725q0 -307 196 -508t556 -201q338 0 539 199q209 203 209 516q0 299 -199 499t-549 200q-344 0 -548 -196t-204 -509zM463 1731q0 68 47 119 t117 51q72 0 119 -48.5t47 -122t-48.5 -121.5t-118 -48t-116.5 49t-47 121zM475 733q0 213 108.5 339t272.5 126q180 0 278.5 -134t98.5 -331q0 -203 -100.5 -340t-276.5 -137t-278.5 130t-102.5 347zM514 1731q0 -51 32 -85t81 -34t81.5 33.5t32.5 85t-32.5 85t-81.5 33.5 q-47 0 -80 -35.5t-33 -82.5zM530 733q0 -186 84 -305t242 -119q154 0 238 123t84 301q0 168 -81 290t-241 122q-143 0 -234.5 -111.5t-91.5 -300.5zM918 1731q0 68 46 119t115 51q72 0 120 -48.5t48 -122t-49 -121.5t-118.5 -48t-115.5 49t-46 121zM969 1731q0 -51 31.5 -85 t78.5 -34q49 0 83 33.5t34 85t-33 85t-84 33.5q-47 0 -78.5 -35.5t-31.5 -82.5z" />
<glyph unicode="&#xd7;" horiz-adv-x="1480" d="M211 940l276 277l256 -259l254 256l273 -272l-254 -254l256 -258l-277 -276l-256 258l-254 -254l-272 272l254 252zM289 940l256 -258l-254 -252l194 -194l254 253l256 -256l199 197l-256 258l254 254l-195 195l-254 -256l-256 256z" />
<glyph unicode="&#xd8;" horiz-adv-x="1705" d="M-33 61l223 211q-143 197 -143 453q0 324 220 541t597 217q283 0 479 -137l238 225l168 -187l-225 -213q135 -180 135 -436q0 -207 -91 -380t-275.5 -282.5t-430.5 -109.5q-288 0 -489 135l-238 -223zM37 57l100 -112l230 217q61 -41 106 -65.5t153.5 -54.5t233.5 -30 q309 0 529.5 194.5t220.5 528.5q0 252 -154 443l225 208l-102 113l-231 -217q-59 45 -104.5 70.5t-149 53.5t-230.5 28q-356 0 -562 -203t-206 -506q0 -113 32 -213t59.5 -144t70.5 -102zM477 750q0 190 105.5 320t277.5 130q155 0 270 -121l-614 -567q-39 152 -39 238z M526 750q1 -56 17 -148l514 475q-78 74 -197 74q-150 0 -242 -115.5t-92 -285.5zM590 373l614 563q33 -123 33 -211q0 -193 -100.5 -332t-282.5 -139q-66 0 -121 21.5t-79.5 41t-63.5 56.5zM664 375q78 -72 190 -72q164 0 249 126t85 296q0 47 -12 121z" />
<glyph unicode="&#xd9;" horiz-adv-x="1579" d="M90 530v916h457v-811q0 -66 2 -98.5t12 -75.5t31 -74q63 -94 205 -94q125 0 188 88q23 31 33 69.5t12 68.5t2 87v840h457v-871q0 -209 -64 -331q-145 -281 -641 -281q-133 0 -241.5 23.5t-179 59.5t-123 88t-81 101.5t-45 110t-20.5 101t-4 83.5zM143 543 q0 -274 176 -404q166 -123 465 -123q221 0 365 56q96 37 158.5 98t88 136t33 129t7.5 124v834h-351v-787q0 -59 -2 -92t-15 -80t-40 -84q-80 -111 -231 -110q-170 0 -250 116q-25 37 -37 87.5t-14 86t-2 105.5v758h-351v-850zM479 1741v282l576 -262v-239zM528 1774 l478 -181v136l-478 219v-174z" />
<glyph unicode="&#xda;" horiz-adv-x="1579" d="M90 530v916h457v-811q0 -66 2 -98.5t12 -75.5t31 -74q63 -94 205 -94q125 0 188 88q23 31 33 69.5t12 68.5t2 87v840h457v-871q0 -209 -64 -331q-145 -281 -641 -281q-133 0 -241.5 23.5t-179 59.5t-123 88t-81 101.5t-45 110t-20.5 101t-4 83.5zM143 543 q0 -274 176 -404q166 -123 465 -123q221 0 365 56q96 37 158.5 98t88 136t33 129t7.5 124v834h-351v-787q0 -59 -2 -92t-15 -80t-40 -84q-80 -111 -231 -110q-170 0 -250 116q-25 37 -37 87.5t-14 86t-2 105.5v758h-351v-850zM588 1522v239l575 262v-282zM637 1591l477 183 v172l-477 -217v-138z" />
<glyph unicode="&#xdb;" horiz-adv-x="1579" d="M90 530v916h457v-811q0 -66 2 -98.5t12 -75.5t31 -74q63 -94 205 -94q125 0 188 88q23 31 33 69.5t12 68.5t2 87v840h457v-871q0 -209 -64 -331q-145 -281 -641 -281q-133 0 -241.5 23.5t-179 59.5t-123 88t-81 101.5t-45 110t-20.5 101t-4 83.5zM143 543 q0 -274 176 -404q166 -123 465 -123q221 0 365 56q96 37 158.5 98t88 136t33 129t7.5 124v834h-351v-787q0 -59 -2 -92t-15 -80t-40 -84q-80 -111 -231 -110q-170 0 -250 116q-25 37 -37 87.5t-14 86t-2 105.5v758h-351v-850zM438 1520v235l350 213l357 -213v-235l-357 170z M487 1597l301 148l308 -150v131l-310 185l-299 -182v-132z" />
<glyph unicode="&#xdc;" horiz-adv-x="1579" d="M90 530v916h457v-811q0 -66 2 -98.5t12 -75.5t31 -74q63 -94 205 -94q125 0 188 88q23 31 33 69.5t12 68.5t2 87v840h457v-871q0 -209 -64 -331q-145 -281 -641 -281q-133 0 -241.5 23.5t-179 59.5t-123 88t-81 101.5t-45 110t-20.5 101t-4 83.5zM143 543 q0 -274 176 -404q166 -123 465 -123q221 0 365 56q96 37 158.5 98t88 136t33 129t7.5 124v834h-351v-787q0 -59 -2 -92t-15 -80t-40 -84q-80 -111 -231 -110q-170 0 -250 116q-25 37 -37 87.5t-14 86t-2 105.5v758h-351v-850zM403 1731q0 68 47.5 119t116.5 51 q72 0 119 -48.5t47 -122t-48 -121.5t-117.5 -48t-117 49t-47.5 121zM455 1731q0 -51 31.5 -85t80.5 -34t82 33.5t33 85t-33 85t-82 33.5q-47 0 -79.5 -35.5t-32.5 -82.5zM858 1731q0 68 46 119t116 51q72 0 120 -48.5t48 -122t-49 -121.5t-119 -48t-116 49t-46 121z M909 1731q0 -51 32 -85t79 -34q49 0 83 33.5t34 85t-33 85t-84 33.5q-47 0 -79 -35.5t-32 -82.5z" />
<glyph unicode="&#xdd;" horiz-adv-x="1492" d="M0 1446h516l244 -492l248 492h485l-516 -928v-518h-461v518zM84 1397l481 -867v-481h363v481l481 867h-371l-280 -547l-273 547h-401zM604 1522v239l576 262v-282zM653 1591l477 183v172l-477 -217v-138z" />
<glyph unicode="&#xde;" horiz-adv-x="1323" d="M90 0v1446h459v-258h272q123 0 232.5 -44t189.5 -148.5t80 -254.5q0 -207 -147.5 -325.5t-352.5 -118.5h-274v-297h-459zM143 53h353v867h213q106 0 159.5 -62.5t53.5 -136.5q0 -63 -41 -120.5t-131 -68.5l-125 -182h182q115 0 215 36t174 128t74 227q0 197 -136.5 295.5 t-312.5 98.5h-325v258h-353v-1340zM549 336l172 248q84 4 115.5 47t31.5 90q0 51 -37.5 98t-121.5 47h-160v-530z" />
<glyph unicode="&#xdf;" horiz-adv-x="1323" d="M84 0v868q0 139 14 207q41 199 207 303.5t400 104.5q248 0 377.5 -110.5t129.5 -264.5q0 -215 -237 -311q33 -6 62.5 -15.5t77.5 -36t83 -64.5t60.5 -106.5t25.5 -154.5q0 -76 -23.5 -148.5t-73.5 -141.5t-144.5 -112t-219.5 -43q-102 0 -227 37v299q59 -35 115 -35 q78 0 124 48.5t46 111.5q0 78 -77 146.5t-214 68.5q-39 0 -60 -2l205 277q88 31 88 121q0 68 -45 113.5t-119 45.5q-178 0 -178 -260v-946h-397zM133 49h299v901q0 172 67.5 238.5t157.5 66.5q96 0 155.5 -60t59.5 -146q0 -117 -106 -166l-143 -187q119 0 213 -77.5 t94 -182.5q0 -84 -61.5 -146.5t-155.5 -62.5q-31 0 -68 11v-189q102 -25 178 -24q94 0 168 26.5t118 67.5t73.5 95t41 105.5t11.5 100.5q0 78 -24.5 138t-60.5 97t-89 63.5t-97 39t-100 20.5q82 43 122 68.5t89 66.5t68.5 87.5t19.5 107.5q0 133 -116.5 229.5t-341.5 96.5 q-207 0 -362 -89.5t-196 -279.5q-14 -61 -14 -197v-819z" />
<glyph unicode="&#xe0;" horiz-adv-x="1110" d="M12 291q0 61 21.5 116.5t70 110.5t147.5 89t236 34q80 0 166 -14q-16 168 -227 168q-152 0 -328 -86l172 295q168 33 285 32q211 0 332 -82q61 -43 94 -98t38 -89t5 -81v-686h-369v174l-151 -192q-61 -6 -98 -7q-195 0 -294.5 89.5t-99.5 226.5zM63 295 q0 -127 87.5 -198.5t255.5 -71.5q47 0 77 2l129 147q-63 -14 -100 -14q-78 0 -129 42t-51 109.5t55 117.5t168 50q70 0 147 -18v-412h273v621q0 164 -117 245q-104 72 -309 72q-106 0 -246 -26l-104 -168q102 51 231 51q76 0 131 -21.5t82 -49.5t41 -72t16 -69.5t2 -64.5 q-119 25 -217 25q-31 0 -55 -2t-80.5 -9.5t-100.5 -26.5t-89 -50t-71 -85t-26 -124zM299 1397v313l477 -340v-283zM348 1425l379 -243v161l-379 269v-187zM383 311q0 -55 41 -80.5t96 -25.5q67 -1 135 24v191q-49 10 -98 10q-174 0 -174 -119z" />
<glyph unicode="&#xe1;" horiz-adv-x="1110" d="M12 291q0 61 21.5 116.5t70 110.5t147.5 89t236 34q80 0 166 -14q-16 168 -227 168q-152 0 -328 -86l172 295q168 33 285 32q211 0 332 -82q61 -43 94 -98t38 -89t5 -81v-686h-369v174l-151 -192q-61 -6 -98 -7q-195 0 -294.5 89.5t-99.5 226.5zM63 295 q0 -127 87.5 -198.5t255.5 -71.5q47 0 77 2l129 147q-63 -14 -100 -14q-78 0 -129 42t-51 109.5t55 117.5t168 50q70 0 147 -18v-412h273v621q0 164 -117 245q-104 72 -309 72q-106 0 -246 -26l-104 -168q102 51 231 51q76 0 131 -21.5t82 -49.5t41 -72t16 -69.5t2 -64.5 q-119 25 -217 25q-31 0 -55 -2t-80.5 -9.5t-100.5 -26.5t-89 -50t-71 -85t-26 -124zM377 1092v274l477 344v-311zM383 311q0 -55 41 -80.5t96 -25.5q67 -1 135 24v191q-49 10 -98 10q-174 0 -174 -119zM426 1184l379 243v187l-379 -273v-157z" />
<glyph unicode="&#xe2;" horiz-adv-x="1110" d="M12 291q0 61 21.5 116.5t70 110.5t147.5 89t236 34q80 0 166 -14q-16 168 -227 168q-152 0 -328 -86l172 295q168 33 285 32q211 0 332 -82q61 -43 94 -98t38 -89t5 -81v-686h-369v174l-151 -192q-61 -6 -98 -7q-195 0 -294.5 89.5t-99.5 226.5zM63 295 q0 -127 87.5 -198.5t255.5 -71.5q47 0 77 2l129 147q-63 -14 -100 -14q-78 0 -129 42t-51 109.5t55 117.5t168 50q70 0 147 -18v-412h273v621q0 164 -117 245q-104 72 -309 72q-106 0 -246 -26l-104 -168q102 51 231 51q76 0 131 -21.5t82 -49.5t41 -72t16 -69.5t2 -64.5 q-119 25 -217 25q-31 0 -55 -2t-80.5 -9.5t-100.5 -26.5t-89 -50t-71 -85t-26 -124zM242 1096v254l325 284l332 -278v-260l-332 241zM291 1190l276 207l283 -209v145l-283 236l-276 -242v-137zM383 311q0 -55 41 -80.5t96 -25.5q67 -1 135 24v191q-49 10 -98 10 q-174 0 -174 -119z" />
<glyph unicode="&#xe3;" horiz-adv-x="1110" d="M12 291q0 61 21.5 116.5t70 110.5t147.5 89t236 34q80 0 166 -14q-16 168 -227 168q-152 0 -328 -86l172 295q168 33 285 32q211 0 332 -82q61 -43 94 -98t38 -89t5 -81v-686h-369v174l-151 -192q-61 -6 -98 -7q-195 0 -294.5 89.5t-99.5 226.5zM63 295 q0 -127 87.5 -198.5t255.5 -71.5q47 0 77 2l129 147q-63 -14 -100 -14q-78 0 -129 42t-51 109.5t55 117.5t168 50q70 0 147 -18v-412h273v621q0 164 -117 245q-104 72 -309 72q-106 0 -246 -26l-104 -168q102 51 231 51q76 0 131 -21.5t82 -49.5t41 -72t16 -69.5t2 -64.5 q-119 25 -217 25q-31 0 -55 -2t-80.5 -9.5t-100.5 -26.5t-89 -50t-71 -85t-26 -124zM225 1165v228q25 31 41.5 49t59.5 38.5t94 20.5q55 0 157.5 -41t147.5 -41q104 0 178 94v-239q-68 -102 -182 -103q-51 0 -195 50q-84 29 -120 28q-96 0 -181 -84zM274 1266q53 33 132 32 q49 0 137 -28q143 -49 178 -49q86 -1 133 65v119q-59 -37 -129 -37q-45 0 -166 47q-90 37 -139 37q-88 0 -146 -76v-110zM383 311q0 -55 41 -80.5t96 -25.5q67 -1 135 24v191q-49 10 -98 10q-174 0 -174 -119z" />
<glyph unicode="&#xe4;" horiz-adv-x="1110" d="M12 291q0 61 21.5 116.5t70 110.5t147.5 89t236 34q80 0 166 -14q-16 168 -227 168q-152 0 -328 -86l172 295q168 33 285 32q211 0 332 -82q61 -43 94 -98t38 -89t5 -81v-686h-369v174l-151 -192q-61 -6 -98 -7q-195 0 -294.5 89.5t-99.5 226.5zM63 295 q0 -127 87.5 -198.5t255.5 -71.5q47 0 77 2l129 147q-63 -14 -100 -14q-78 0 -129 42t-51 109.5t55 117.5t168 50q70 0 147 -18v-412h273v621q0 164 -117 245q-104 72 -309 72q-106 0 -246 -26l-104 -168q102 51 231 51q76 0 131 -21.5t82 -49.5t41 -72t16 -69.5t2 -64.5 q-119 25 -217 25q-31 0 -55 -2t-80.5 -9.5t-100.5 -26.5t-89 -50t-71 -85t-26 -124zM170 1341q0 66 45 114t115 48q72 0 118 -46t46 -115.5t-48.5 -115.5t-115.5 -46q-70 0 -115 45.5t-45 115.5zM221 1341q0 -47 31 -78.5t78 -31.5t79.5 31.5t32.5 79t-31.5 79t-80.5 31.5 q-47 0 -78 -33t-31 -78zM383 311q0 -55 41 -80.5t96 -25.5q67 -1 135 24v191q-49 10 -98 10q-174 0 -174 -119zM600 1341q0 66 45 114t115 48q72 0 118 -46t46 -115.5t-48.5 -115.5t-115.5 -46q-70 0 -115 45.5t-45 115.5zM651 1341q0 -47 31 -78.5t78 -31.5t79.5 31.5 t32.5 79t-31.5 79t-80.5 31.5q-47 0 -78 -33t-31 -78z" />
<glyph unicode="&#xe5;" horiz-adv-x="1110" d="M12 291q0 61 21.5 116.5t70 110.5t147.5 89t236 34q80 0 166 -14q-16 168 -227 168q-152 0 -328 -86l172 295q168 33 285 32q211 0 332 -82q61 -43 94 -98t38 -89t5 -81v-686h-369v174l-151 -192q-61 -6 -98 -7q-195 0 -294.5 89.5t-99.5 226.5zM63 295 q0 -127 87.5 -198.5t255.5 -71.5q47 0 77 2l129 147q-63 -14 -100 -14q-78 0 -129 42t-51 109.5t55 117.5t168 50q70 0 147 -18v-412h273v621q0 164 -117 245q-104 72 -309 72q-106 0 -246 -26l-104 -168q102 51 231 51q76 0 131 -21.5t82 -49.5t41 -72t16 -69.5t2 -64.5 q-119 25 -217 25q-31 0 -55 -2t-80.5 -9.5t-100.5 -26.5t-89 -50t-71 -85t-26 -124zM328 1356q0 106 72.5 180t181 74t181.5 -74t73 -180q0 -109 -72 -181.5t-182.5 -72.5t-182 72.5t-71.5 181.5zM377 1356q0 -88 57.5 -148.5t147.5 -60.5t148 59.5t58 149.5q0 86 -59 146.5 t-147 60.5t-146.5 -60.5t-58.5 -146.5zM383 311q0 -55 41 -80.5t96 -25.5q67 -1 135 24v191q-49 10 -98 10q-174 0 -174 -119zM444 1356q0 59 38 99t99.5 40t99.5 -38t38 -101q0 -61 -38 -101.5t-99.5 -40.5t-99.5 40t-38 102zM494 1356q0 -39 24.5 -67.5t63.5 -28.5 t63.5 28.5t24.5 67.5q0 41 -24.5 67.5t-63.5 26.5t-63.5 -27.5t-24.5 -66.5z" />
<glyph unicode="&#xe6;" horiz-adv-x="1748" d="M12 301q0 53 20.5 107.5t66.5 109.5t139.5 90t222.5 35q82 0 174 -18q0 84 -64.5 128t-152.5 44q-156 0 -324 -90l172 294q133 37 264 37q205 0 349 -104q137 104 309 104q129 0 237.5 -53t173.5 -135q49 -63 76 -153.5t31 -140.5t6 -130h-688q59 -203 315 -203 q179 0 353 82l-170 -297q-147 -33 -308 -33q-174 0 -284 48q-123 49 -197 155l-125 -184q-74 -18 -180 -19q-203 0 -309.5 94.5t-106.5 231.5zM59 301q0 -37 12.5 -76t47.5 -89t119 -81.5t204 -31.5q85 0 142 12l98 141q-72 -16 -127 -16q-115 0 -167 45t-52 112 q0 66 51 114t180 48q41 0 111 -12q16 -129 53 -203q121 -242 477 -241q170 0 283 28l108 172q-133 -47 -256 -47q-188 0 -286 98q-70 68 -94 199h702q-4 70 -9 113t-28.5 112.5t-64.5 122.5q-57 74 -156.5 122t-220.5 48q-162 0 -307 -114q-45 35 -76 54t-105.5 39.5 t-167.5 20.5q-123 0 -233 -30l-104 -166q129 49 225 49q166 0 231 -105q35 -53 35 -174q-131 31 -229 31q-195 0 -295.5 -88t-100.5 -207zM383 317q0 -47 42 -79.5t134 -32.5q67 0 143 14q-51 88 -67 207q-37 6 -68 6q-184 0 -184 -115zM954 575q16 123 45 177 q61 109 179 108q196 0 208 -285h-432zM1008 623h329q-6 86 -47 138t-112 52q-55 0 -106.5 -43t-63.5 -147z" />
<glyph unicode="&#xe7;" horiz-adv-x="980" d="M39 510q0 219 155.5 372.5t432.5 153.5q172 0 311 -59v-318q-102 106 -236 107q-109 0 -180 -71.5t-71 -182.5q0 -115 74.5 -197t215.5 -82q106 0 242 52l-158 -279q-109 -25 -153 -29l-37 -77q72 -18 108.5 -69.5t36.5 -123.5q0 -117 -104.5 -186.5t-323.5 -71.5v174 q158 6 158 98q0 90 -102 97l73 168q-213 33 -327.5 183t-114.5 341zM90 510q0 -186 118 -327.5t345 -155.5l-80 -179q86 -31 86 -127q0 -119 -160 -141v-82q168 8 250 65.5t82 143.5q0 59 -39 104.5t-123 55.5l70 158q49 2 154 24l100 164q-25 -10 -64 -20q-49 -8 -86 -9 q-162 0 -253 95.5t-91 232.5q0 133 86 218t217 85q104 0 187 -59v188q-145 43 -260 43q-260 0 -399.5 -141t-139.5 -336z" />
<glyph unicode="&#xe8;" horiz-adv-x="1193" d="M39 504q0 229 144.5 380.5t414.5 151.5q289 0 434 -166q127 -145 127 -442h-696q57 -201 317 -201q176 0 344 74l-168 -293q-168 -33 -303 -33q-150 0 -265.5 38t-179 93.5t-104.5 131t-53 138t-12 128.5zM86 504q0 -225 147 -354q141 -127 422 -127q119 0 271 26 l108 174q-145 -43 -254 -43q-133 0 -219 47q-137 76 -160 248h711q-4 78 -9 121t-32 114.5t-76 127.5q-131 152 -397 151q-254 0 -383 -139t-129 -346zM344 1397v313l477 -340v-283zM393 1425l379 -243v161l-379 269v-187zM395 578q2 145 69.5 214.5t153.5 69.5 q115 0 164 -83t49 -177v-24h-436zM449 625h333q-2 61 -22.5 103t-50 58.5t-51 22.5t-40.5 6q-66 0 -112.5 -48t-56.5 -142z" />
<glyph unicode="&#xe9;" horiz-adv-x="1193" d="M39 504q0 229 144.5 380.5t414.5 151.5q289 0 434 -166q127 -145 127 -442h-696q57 -201 317 -201q176 0 344 74l-168 -293q-168 -33 -303 -33q-150 0 -265.5 38t-179 93.5t-104.5 131t-53 138t-12 128.5zM86 504q0 -225 147 -354q141 -127 422 -127q119 0 271 26 l108 174q-145 -43 -254 -43q-133 0 -219 47q-137 76 -160 248h711q-4 78 -9 121t-32 114.5t-76 127.5q-131 152 -397 151q-254 0 -383 -139t-129 -346zM395 578q2 145 69.5 214.5t153.5 69.5q115 0 164 -83t49 -177v-24h-436zM449 625h333q-2 61 -22.5 103t-50 58.5 t-51 22.5t-40.5 6q-66 0 -112.5 -48t-56.5 -142zM459 1092v274l477 344v-311zM508 1184l379 243v187l-379 -273v-157z" />
<glyph unicode="&#xea;" horiz-adv-x="1193" d="M39 504q0 229 144.5 380.5t414.5 151.5q289 0 434 -166q127 -145 127 -442h-696q57 -201 317 -201q176 0 344 74l-168 -293q-168 -33 -303 -33q-150 0 -265.5 38t-179 93.5t-104.5 131t-53 138t-12 128.5zM86 504q0 -225 147 -354q141 -127 422 -127q119 0 271 26 l108 174q-145 -43 -254 -43q-133 0 -219 47q-137 76 -160 248h711q-4 78 -9 121t-32 114.5t-76 127.5q-131 152 -397 151q-254 0 -383 -139t-129 -346zM274 1096v254l326 284l332 -278v-260l-332 241zM324 1190l276 207l283 -209v145l-283 236l-276 -242v-137zM395 578 q2 145 69.5 214.5t153.5 69.5q115 0 164 -83t49 -177v-24h-436zM449 625h333q-2 61 -22.5 103t-50 58.5t-51 22.5t-40.5 6q-66 0 -112.5 -48t-56.5 -142z" />
<glyph unicode="&#xeb;" horiz-adv-x="1193" d="M39 504q0 229 144.5 380.5t414.5 151.5q289 0 434 -166q127 -145 127 -442h-696q57 -201 317 -201q176 0 344 74l-168 -293q-168 -33 -303 -33q-150 0 -265.5 38t-179 93.5t-104.5 131t-53 138t-12 128.5zM86 504q0 -225 147 -354q141 -127 422 -127q119 0 271 26 l108 174q-145 -43 -254 -43q-133 0 -219 47q-137 76 -160 248h711q-4 78 -9 121t-32 114.5t-76 127.5q-131 152 -397 151q-254 0 -383 -139t-129 -346zM246 1341q0 66 45 114t115 48q72 0 117.5 -46t45.5 -115.5t-48 -115.5t-115 -46q-70 0 -115 45.5t-45 115.5zM297 1341 q0 -47 30.5 -78.5t78 -31.5t80 31.5t32.5 79t-31.5 79t-80.5 31.5q-47 0 -78 -33t-31 -78zM395 578q2 145 69.5 214.5t153.5 69.5q115 0 164 -83t49 -177v-24h-436zM449 625h333q-2 61 -22.5 103t-50 58.5t-51 22.5t-40.5 6q-66 0 -112.5 -48t-56.5 -142zM676 1341 q0 66 45 114t115 48q72 0 117.5 -46t45.5 -115.5t-48 -115.5t-115 -46q-70 0 -115 45.5t-45 115.5zM727 1341q0 -47 30.5 -78.5t78 -31.5t80 31.5t32.5 79t-31.5 79t-80.5 31.5q-47 0 -78 -33t-31 -78z" />
<glyph unicode="&#xec;" horiz-adv-x="555" d="M-6 1397v313l477 -340v-283zM43 1425l379 -243v161l-379 269v-187zM78 0v1012h397v-1012h-397zM127 49h299v914h-299v-914z" />
<glyph unicode="&#xed;" horiz-adv-x="555" d="M68 1092v274l477 344v-311zM78 0v1012h397v-1012h-397zM117 1184l379 243v187l-379 -273v-157zM127 49h299v914h-299v-914z" />
<glyph unicode="&#xee;" horiz-adv-x="555" d="M-39 1096v254l326 284l331 -278v-260l-331 241zM10 1190l277 207l282 -209v145l-282 236l-277 -242v-137zM78 0v1012h397v-1012h-397zM127 49h299v914h-299v-914z" />
<glyph unicode="&#xef;" horiz-adv-x="555" d="M-102 1341q0 66 45 114t114 48q72 0 118 -46t46 -115.5t-48 -115.5t-116 -46q-70 0 -114.5 45.5t-44.5 115.5zM-51 1341q0 -47 30.5 -78.5t77.5 -31.5t80 31.5t33 79t-32 79t-81 31.5q-47 0 -77.5 -33t-30.5 -78zM78 0v1012h397v-1012h-397zM127 49h299v914h-299v-914z M328 1341q0 66 45 114t114 48q72 0 118 -46t46 -115.5t-48 -115.5t-116 -46q-70 0 -114.5 45.5t-44.5 115.5zM379 1341q0 -47 30.5 -78.5t78 -31.5t80 31.5t32.5 79t-31.5 79t-81.5 31.5q-47 0 -77.5 -33t-30.5 -78z" />
<glyph unicode="&#xf0;" d="M39 516q0 229 141.5 375.5t354.5 146.5q84 0 151 -30q-33 86 -72 133l-264 -86l-90 164l223 71q-47 47 -100 80l367 139q59 -45 114 -98l183 59l83 -163l-139 -45q211 -291 211 -656q0 -326 -168 -489q-150 -141 -432 -142q-279 0 -421 156t-142 385zM88 516 q0 -268 186 -399q129 -92 328 -92q264 0 397 129q154 145 154 452q0 223 -92 434q-59 131 -148 242l152 49l-45 86l-174 -57l-23 22q-10 10 -82 72l-262 -102q31 -23 88 -80l-243 -80l47 -84l266 86q92 -117 139 -279q-135 74 -244 74q-193 0 -318.5 -132t-125.5 -341z M408 535q0 39 4 71.5t21.5 93t65.5 96t122 35.5q117 0 166 -93t49 -232q0 -317 -209 -318q-94 0 -156.5 80.5t-62.5 266.5zM457 532q0 -295 170 -294q160 0 159 270q0 274 -165 274q-164 0 -164 -250z" />
<glyph unicode="&#xf1;" d="M84 0v1012h389v-256l186 252q78 29 172 28q160 0 244 -90q78 -84 78 -254v-692h-389v547q0 203 -156 203q-72 0 -135 -58v-692h-389zM133 49h291v914h-291v-914zM289 1165v228q25 31 41 49t59 38.5t94 20.5q55 0 157.5 -41t147.5 -41q105 0 179 94v-239 q-68 -102 -183 -103q-51 0 -194 50q-84 29 -121 28q-96 0 -180 -84zM338 1266q53 33 131 32q49 0 137 -28q143 -49 178 -49q87 -1 134 65v119q-59 -37 -130 -37q-45 0 -165 47q-90 37 -140 37q-88 0 -145 -76v-110zM526 768q53 25 103 25q96 0 140 -63.5t44 -166.5v-514h291 v643q0 147 -66 219q-72 76 -209 76q-53 0 -141 -20z" />
<glyph unicode="&#xf2;" d="M39 506q0 229 157.5 379.5t426.5 150.5q256 0 415.5 -140t159.5 -378q0 -72 -15.5 -141.5t-55.5 -144t-103 -130t-169.5 -91.5t-242.5 -36q-152 0 -267.5 48.5t-180 128t-95 169t-30.5 185.5zM90 506q0 -236 148.5 -358.5t371.5 -122.5q123 0 219.5 30.5t154.5 79.5 t96 116.5t52.5 132t14.5 134.5q0 217 -144.5 343t-379.5 126q-248 0 -390.5 -136t-142.5 -345zM356 1397v313l478 -340v-283zM403 512q0 317 218 317q213 0 213 -317q0 -90 -18.5 -154.5t-43 -96.5t-58.5 -49t-53.5 -20.5t-39.5 -3.5q-217 0 -218 324zM406 1425l378 -243 v161l-378 269v-187zM455 510q0 -272 166 -272q161 0 161 274q0 268 -161 268q-166 0 -166 -270z" />
<glyph unicode="&#xf3;" d="M39 506q0 229 157.5 379.5t426.5 150.5q256 0 415.5 -140t159.5 -378q0 -72 -15.5 -141.5t-55.5 -144t-103 -130t-169.5 -91.5t-242.5 -36q-152 0 -267.5 48.5t-180 128t-95 169t-30.5 185.5zM90 506q0 -236 148.5 -358.5t371.5 -122.5q123 0 219.5 30.5t154.5 79.5 t96 116.5t52.5 132t14.5 134.5q0 217 -144.5 343t-379.5 126q-248 0 -390.5 -136t-142.5 -345zM403 512q0 317 218 317q213 0 213 -317q0 -90 -18.5 -154.5t-43 -96.5t-58.5 -49t-53.5 -20.5t-39.5 -3.5q-217 0 -218 324zM451 1092v274l477 344v-311zM455 510 q0 -272 166 -272q161 0 161 274q0 268 -161 268q-166 0 -166 -270zM500 1184l379 243v187l-379 -273v-157z" />
<glyph unicode="&#xf4;" d="M39 506q0 229 157.5 379.5t426.5 150.5q256 0 415.5 -140t159.5 -378q0 -72 -15.5 -141.5t-55.5 -144t-103 -130t-169.5 -91.5t-242.5 -36q-152 0 -267.5 48.5t-180 128t-95 169t-30.5 185.5zM90 506q0 -236 148.5 -358.5t371.5 -122.5q123 0 219.5 30.5t154.5 79.5 t96 116.5t52.5 132t14.5 134.5q0 217 -144.5 343t-379.5 126q-248 0 -390.5 -136t-142.5 -345zM305 1096v254l326 284l332 -278v-260l-332 241zM354 1190l277 207l282 -209v145l-282 236l-277 -242v-137zM403 512q0 317 218 317q213 0 213 -317q0 -90 -18.5 -154.5 t-43 -96.5t-58.5 -49t-53.5 -20.5t-39.5 -3.5q-217 0 -218 324zM455 510q0 -272 166 -272q161 0 161 274q0 268 -161 268q-166 0 -166 -270z" />
<glyph unicode="&#xf5;" d="M39 506q0 229 157.5 379.5t426.5 150.5q256 0 415.5 -140t159.5 -378q0 -72 -15.5 -141.5t-55.5 -144t-103 -130t-169.5 -91.5t-242.5 -36q-152 0 -267.5 48.5t-180 128t-95 169t-30.5 185.5zM90 506q0 -236 148.5 -358.5t371.5 -122.5q123 0 219.5 30.5t154.5 79.5 t96 116.5t52.5 132t14.5 134.5q0 217 -144.5 343t-379.5 126q-248 0 -390.5 -136t-142.5 -345zM281 1165v228q25 31 41 49t59 38.5t94 20.5q55 0 157.5 -41t147.5 -41q104 0 178 94v-239q-68 -102 -182 -103q-51 0 -194 50q-84 29 -121 28q-96 0 -180 -84zM330 1266 q53 33 131 32q49 0 137 -28q143 -49 178 -49q86 -1 133 65v119q-59 -37 -129 -37q-45 0 -166 47q-90 37 -139 37q-88 0 -145 -76v-110zM403 512q0 317 218 317q213 0 213 -317q0 -90 -18.5 -154.5t-43 -96.5t-58.5 -49t-53.5 -20.5t-39.5 -3.5q-217 0 -218 324zM455 510 q0 -272 166 -272q161 0 161 274q0 268 -161 268q-166 0 -166 -270z" />
<glyph unicode="&#xf6;" d="M39 506q0 229 157.5 379.5t426.5 150.5q256 0 415.5 -140t159.5 -378q0 -72 -15.5 -141.5t-55.5 -144t-103 -130t-169.5 -91.5t-242.5 -36q-152 0 -267.5 48.5t-180 128t-95 169t-30.5 185.5zM90 506q0 -236 148.5 -358.5t371.5 -122.5q123 0 219.5 30.5t154.5 79.5 t96 116.5t52.5 132t14.5 134.5q0 217 -144.5 343t-379.5 126q-248 0 -390.5 -136t-142.5 -345zM238 1341q0 66 45 114t114 48q72 0 118 -46t46 -115.5t-48 -115.5t-116 -46q-70 0 -114.5 45.5t-44.5 115.5zM289 1341q0 -47 30.5 -78.5t77.5 -31.5t80 31.5t33 79t-32 79 t-81 31.5q-47 0 -77.5 -33t-30.5 -78zM403 512q0 317 218 317q213 0 213 -317q0 -90 -18.5 -154.5t-43 -96.5t-58.5 -49t-53.5 -20.5t-39.5 -3.5q-217 0 -218 324zM455 510q0 -272 166 -272q161 0 161 274q0 268 -161 268q-166 0 -166 -270zM668 1341q0 66 45 114t114 48 q72 0 118 -46t46 -115.5t-48 -115.5t-116 -46q-70 0 -114.5 45.5t-44.5 115.5zM719 1341q0 -47 30.5 -78.5t77.5 -31.5t80 31.5t33 79t-31.5 79t-81.5 31.5q-47 0 -77.5 -33t-30.5 -78z" />
<glyph unicode="&#xf7;" horiz-adv-x="1482" d="M186 506v360h1110v-360h-1110zM242 561h999v250h-999v-250zM526 233q0 90 59.5 150.5t149.5 60.5t151.5 -62.5t61.5 -152.5q0 -86 -61.5 -145t-149.5 -59q-90 0 -150.5 60t-60.5 148zM528 1137q0 88 59.5 148.5t149.5 60.5t150.5 -60.5t60.5 -151t-59.5 -149.5 t-149.5 -59q-88 0 -149.5 61.5t-61.5 149.5zM582 233q0 -66 45 -109.5t110.5 -43.5t110.5 43t45 106q0 68 -45 114t-113 46q-66 0 -109.5 -44t-43.5 -112zM584 1136.5q0 -65.5 45 -110.5t110.5 -45t109.5 44t44 110q0 68 -44 111.5t-112 43.5q-66 0 -109.5 -44t-43.5 -109.5 z" />
<glyph unicode="&#xf8;" d="M-12 78l139 129q-90 123 -90 297q0 229 158.5 380.5t420.5 151.5q184 0 330 -82l162 146l143 -162l-147 -133q96 -123 96 -295q0 -229 -155.5 -383t-415.5 -154q-190 0 -336 80l-158 -141zM53 76l84 -96l146 133q162 -92 344 -93q238 0 382 138.5t144 351.5 q0 160 -113 301l146 131l-82 90l-152 -135q-158 92 -336 92q-244 0 -388 -137t-144 -348q0 -168 104 -305zM385 504q0 168 61.5 252t167.5 84q99 0 179 -92l-402 -359q-6 57 -6 115zM432 487l293 265q-49 43 -109 43q-94 0 -143 -84q-41 -68 -41 -224zM440 260l398 358 q12 -70 12 -126q0 -49 -9.5 -97.5t-31 -103.5t-71.5 -90t-120 -35q-94 0 -178 94zM508 260q47 -47 113 -47q90 0 136 74.5t46 191.5q0 6 -1 20.5t-1 22.5z" />
<glyph unicode="&#xf9;" d="M84 324v688h393v-561q0 -88 27.5 -137.5t105.5 -49.5q70 0 154 60v688h389v-1012h-389v266l-180 -262q-86 -29 -168 -29q-147 0 -238 84q-94 88 -94 265zM133 324q0 -141 71.5 -220t213.5 -79q49 0 137 20l158 207q-66 -35 -115 -35q-170 0 -170 234v512h-295v-639z M311 1397v313l477 -340v-283zM360 1425l379 -243v161l-379 269v-187zM813 49h291v914h-291v-914z" />
<glyph unicode="&#xfa;" d="M84 324v688h393v-561q0 -88 27.5 -137.5t105.5 -49.5q70 0 154 60v688h389v-1012h-389v266l-180 -262q-86 -29 -168 -29q-147 0 -238 84q-94 88 -94 265zM133 324q0 -141 71.5 -220t213.5 -79q49 0 137 20l158 207q-66 -35 -115 -35q-170 0 -170 234v512h-295v-639z M494 1092v274l477 344v-311zM543 1184l379 243v187l-379 -273v-157zM813 49h291v914h-291v-914z" />
<glyph unicode="&#xfb;" d="M84 324v688h393v-561q0 -88 27.5 -137.5t105.5 -49.5q70 0 154 60v688h389v-1012h-389v266l-180 -262q-86 -29 -168 -29q-147 0 -238 84q-94 88 -94 265zM133 324q0 -141 71.5 -220t213.5 -79q49 0 137 20l158 207q-66 -35 -115 -35q-170 0 -170 234v512h-295v-639z M299 1096v254l326 284l331 -278v-260l-331 241zM348 1190l277 207l282 -209v145l-282 236l-277 -242v-137zM813 49h291v914h-291v-914z" />
<glyph unicode="&#xfc;" d="M84 324v688h393v-561q0 -88 27.5 -137.5t105.5 -49.5q70 0 154 60v688h389v-1012h-389v266l-180 -262q-86 -29 -168 -29q-147 0 -238 84q-94 88 -94 265zM133 324q0 -141 71.5 -220t213.5 -79q49 0 137 20l158 207q-66 -35 -115 -35q-170 0 -170 234v512h-295v-639z M248 1341q0 66 45 114t115 48q72 0 117.5 -46t45.5 -115.5t-48 -115.5t-115 -46q-70 0 -115 45.5t-45 115.5zM299 1341q0 -47 30.5 -78.5t78 -31.5t80 31.5t32.5 79t-31.5 79t-80.5 31.5q-47 0 -78 -33t-31 -78zM678 1341q0 66 45 114t115 48q72 0 117.5 -46t45.5 -115.5 t-48 -115.5t-115 -46q-70 0 -115 45.5t-45 115.5zM729 1341q0 -47 31 -78.5t78 -31.5t79.5 31.5t32.5 79t-31.5 79t-80.5 31.5q-47 0 -78 -33t-31 -78zM813 49h291v914h-291v-914z" />
<glyph unicode="&#xfd;" horiz-adv-x="1193" d="M0 1012h416l192 -662l191 662h395l-369 -963q-45 -115 -82.5 -183.5t-107.5 -137t-176.5 -100t-257.5 -31.5q-98 0 -183 18l101 270q29 -14 69 -14q86 0 134.5 49t58.5 92zM72 963l362 -951q-25 -84 -88 -136t-149 -52q-12 0 -50 4l-63 -176q59 -6 113 -6q141 0 237 26.5 t160.5 87t102.5 127t81 179.5l346 897h-288l-228 -768l-229 768h-307zM483 1092v274l478 344v-311zM532 1184l379 243v187l-379 -273v-157z" />
<glyph unicode="&#xfe;" d="M84 -428v1874h403v-664l158 230q74 25 133 24q193 0 306.5 -144t113.5 -372q0 -262 -138 -403.5t-323 -141.5q-121 0 -250 78v-481h-403zM133 -379h305v524q63 -43 100 -63.5t92.5 -38.5t108.5 -18q164 0 287 128t123 367q0 125 -37 226.5t-125 171t-217 69.5 q-59 0 -96 -16l-123 -170q33 12 67 12q94 0 158 -80t64 -217q0 -145 -66.5 -227t-163.5 -82q-37 0 -69.5 12t-51 25.5t-51.5 40.5v1112h-305v-1776zM487 307q68 -51 123 -51q78 0 129.5 69.5t51.5 190.5q0 135 -57.5 193.5t-133.5 58.5q-54 0 -113 -33v-428z" />
<glyph unicode="&#xff;" horiz-adv-x="1193" d="M0 1012h416l192 -662l191 662h395l-369 -963q-45 -115 -82.5 -183.5t-107.5 -137t-176.5 -100t-257.5 -31.5q-98 0 -183 18l101 270q29 -14 69 -14q86 0 134.5 49t58.5 92zM72 963l362 -951q-25 -84 -88 -136t-149 -52q-12 0 -50 4l-63 -176q59 -6 113 -6q141 0 237 26.5 t160.5 87t102.5 127t81 179.5l346 897h-288l-228 -768l-229 768h-307zM219 1341q0 66 45 114t115 48q72 0 118 -46t46 -115.5t-48.5 -115.5t-115.5 -46q-70 0 -115 45.5t-45 115.5zM270 1341q0 -47 31 -78.5t78 -31.5t80 31.5t33 79t-32 79t-81 31.5q-47 0 -78 -33t-31 -78z M649 1341q0 66 45 114t115 48q72 0 118 -46t46 -115.5t-48 -115.5t-116 -46q-70 0 -115 45.5t-45 115.5zM700 1341q0 -47 31 -78.5t78 -31.5t80 31.5t33 79t-32 79t-81 31.5q-47 0 -78 -33t-31 -78z" />
<glyph unicode="&#x152;" horiz-adv-x="2217" d="M49 709q0 334 222.5 554t555.5 220q47 0 86 -3t60.5 -7.5t61.5 -13.5t65 -13h995v-342h-543v-197h463v-342h-463v-219h666l-203 -346h-921q-129 -37 -260 -37q-344 0 -564.5 203t-220.5 543zM104 719q0 -322 199 -512.5t522 -190.5q133 0 260 37h902l149 244l-635 -4v325 h461v236h-461v303h541v238h-948q-156 35 -269 35q-305 0 -513 -203t-208 -508zM477 719q0 209 109.5 348t312.5 139q92 0 252 -59v-838q-131 -72 -270 -71q-197 0 -300.5 138t-103.5 343zM532 721q0 -182 87.5 -306t261.5 -124q123 0 219 49v770q-129 43 -207 43 q-176 0 -268.5 -125t-92.5 -307z" />
<glyph unicode="&#x153;" horiz-adv-x="1921" d="M39 498q0 252 163 396t419 144q211 0 354 -100q176 98 362 98q266 0 406.5 -153.5t140.5 -425.5v-33h-688q39 -109 116 -152t199 -43q174 0 351 80l-172 -297q-184 -37 -314 -37q-248 0 -401 107q-145 -106 -381 -107q-256 0 -405.5 136.5t-149.5 386.5zM90 497.5 q0 -233.5 133 -354t369 -120.5q227 0 383 114q166 -115 403 -114q115 0 283 32l113 178q-150 -51 -261 -51q-162 0 -250.5 67.5t-129.5 221.5h704q-8 147 -33 215q-53 152 -172 227.5t-282 75.5q-119 0 -194 -22.5t-183 -83.5q-150 109 -355 108q-236 0 -382 -130 t-146 -363.5zM397 508q0 123 54.5 219t166.5 96q109 0 160 -92t51 -209q0 -59 -10 -112.5t-31.5 -105.5t-66.5 -84t-109 -32q-76 0 -127 54.5t-69.5 123t-18.5 142.5zM446 512q0 -63 11.5 -119.5t51.5 -106.5t103 -50q168 0 168 290q0 94 -37.5 172t-124.5 78 q-63 0 -104 -45t-54.5 -101.5t-13.5 -117.5zM1126 573q0 111 55.5 198t159.5 87q113 0 163 -82t50 -203h-428zM1180 621h325q0 78 -44 134t-120 56q-137 0 -161 -190z" />
<glyph unicode="&#x178;" horiz-adv-x="1492" d="M0 1446h516l244 -492l248 492h485l-516 -928v-518h-461v518zM84 1397l481 -867v-481h363v481l481 867h-371l-280 -547l-273 547h-401zM365 1731q0 68 47 119t116 51q72 0 119 -48.5t47 -122t-48 -121.5t-117.5 -48t-116.5 49t-47 121zM416 1731q0 -51 31.5 -85t81 -34 t82 33.5t32.5 85t-32.5 85t-82.5 33.5q-47 0 -79.5 -35.5t-32.5 -82.5zM819 1731q0 68 46 119t116 51q72 0 120 -48.5t48 -122t-49 -121.5t-119 -48t-116 49t-46 121zM870 1731q0 -51 32 -85t79 -34q49 0 83 33.5t34 85t-33 85t-84 33.5q-47 0 -79 -35.5t-32 -82.5z" />
<glyph unicode="&#x2c6;" horiz-adv-x="641" d="M-8 1096v254l325 284l332 -278v-260l-332 241zM41 1190l276 207l283 -209v145l-283 236l-276 -242v-137z" />
<glyph unicode="&#x2dc;" horiz-adv-x="641" d="M-18 1165v228q25 31 41 49t59 38.5t94 20.5q55 0 157.5 -41t147.5 -41q104 0 178 94v-239q-68 -102 -182 -103q-51 0 -194 50q-84 29 -121 28q-96 0 -180 -84zM31 1266q53 33 131 32q49 0 137 -28q143 -49 178 -49q86 -1 133 65v119q-59 -37 -129 -37q-45 0 -166 47 q-90 37 -139 37q-88 0 -145 -76v-110z" />
<glyph unicode="&#x2000;" horiz-adv-x="1011" />
<glyph unicode="&#x2001;" horiz-adv-x="2023" />
<glyph unicode="&#x2002;" horiz-adv-x="1011" />
<glyph unicode="&#x2003;" horiz-adv-x="2023" />
<glyph unicode="&#x2004;" horiz-adv-x="674" />
<glyph unicode="&#x2005;" horiz-adv-x="505" />
<glyph unicode="&#x2006;" horiz-adv-x="337" />
<glyph unicode="&#x2007;" horiz-adv-x="337" />
<glyph unicode="&#x2008;" horiz-adv-x="252" />
<glyph unicode="&#x2009;" horiz-adv-x="404" />
<glyph unicode="&#x200a;" horiz-adv-x="112" />
<glyph unicode="&#x2010;" horiz-adv-x="854" d="M0 412l184 266h670l-184 -266h-670zM102 465h541l111 160h-543z" />
<glyph unicode="&#x2011;" horiz-adv-x="854" d="M0 412l184 266h670l-184 -266h-670zM102 465h541l111 160h-543z" />
<glyph unicode="&#x2012;" horiz-adv-x="854" d="M0 412l184 266h670l-184 -266h-670zM102 465h541l111 160h-543z" />
<glyph unicode="&#x2013;" horiz-adv-x="1280" d="M0 412l184 266h1096l-186 -266h-1094zM100 465h967l115 160h-973z" />
<glyph unicode="&#x2014;" horiz-adv-x="1712" d="M0 412l184 266h1528l-186 -266h-1526zM100 465h1399l115 160h-1405z" />
<glyph unicode="&#x2018;" horiz-adv-x="512" d="M-37 887l322 561h188l-207 -561h-303zM53 940h176l170 455h-84z" />
<glyph unicode="&#x2019;" horiz-adv-x="512" d="M39 887l207 561h303l-322 -561h-188zM113 940h84l262 455h-176z" />
<glyph unicode="&#x201a;" horiz-adv-x="512" d="M39 -215l207 559h303l-322 -559h-188zM113 -162h84l262 453h-176z" />
<glyph unicode="&#x201c;" horiz-adv-x="980" d="M-37 887l320 561h190l-207 -561h-303zM53 940h176l170 455h-86zM432 887l322 561h188l-205 -561h-305zM522 940h178l168 455h-84z" />
<glyph unicode="&#x201d;" horiz-adv-x="980" d="M39 887l207 561h303l-322 -561h-188zM113 940h86l260 455h-176zM508 887l207 561h303l-320 -561h-190zM584 940h84l260 455h-176z" />
<glyph unicode="&#x201e;" horiz-adv-x="980" d="M-18 -215l206 559h304l-320 -559h-190zM55 -162h86l260 453h-176zM451 -215l206 559h304l-320 -559h-190zM526 -162h84l260 453h-176z" />
<glyph unicode="&#x2022;" horiz-adv-x="681" d="M23 721q0 131 95 224t228 93q131 0 221 -90t90 -223q0 -143 -87 -233.5t-226 -90.5q-133 0 -227 93.5t-94 226.5zM78 721q0 -111 77.5 -187.5t188.5 -76.5q115 0 186.5 74.5t71.5 193.5q0 109 -73.5 183.5t-182.5 74.5q-111 0 -189.5 -77t-78.5 -185z" />
<glyph unicode="&#x2026;" horiz-adv-x="2048" d="M176 143.5q0 71.5 47 119.5t117 48q72 0 120 -48t48 -119.5t-47 -120t-119 -48.5q-70 0 -118 48.5t-48 120zM231 143q0 -47 32 -79.5t79 -32.5t79 31.5t32 81t-32 81t-81 31.5q-47 0 -78 -31.5t-31 -81.5zM858 143.5q0 71.5 47 119.5t119 48t119 -48t47 -119.5t-47 -120 t-119 -48.5q-70 0 -118 48.5t-48 120zM913 143q0 -47 32 -79.5t79 -32.5t79 31.5t32 81t-32 81t-79 31.5t-79 -31.5t-32 -81.5zM1540 143.5q0 71.5 47 119.5t119 48t119 -48t47 -119.5t-47 -120t-119 -48.5q-70 0 -118 48.5t-48 120zM1595 143q0 -47 32 -79.5t79 -32.5 t79 31.5t32 81t-32 81t-79 31.5t-79 -31.5t-32 -81.5z" />
<glyph unicode="&#x202f;" horiz-adv-x="404" />
<glyph unicode="&#x2039;" horiz-adv-x="555" d="M-2 549l221 319h338l-223 -319l223 -324h-338zM61 549l187 -270h211l-189 270l187 266h-209z" />
<glyph unicode="&#x203a;" horiz-adv-x="555" d="M-2 225l221 320l-221 323h338l221 -323l-221 -320h-338zM96 815l189 -270l-187 -266h209l185 266l-185 270h-211z" />
<glyph unicode="&#x205f;" horiz-adv-x="505" />
<glyph unicode="&#x20ac;" horiz-adv-x="1435" d="M92 397v248h133v19q0 49 2 71h-135v248h187q66 205 239.5 327t458.5 122q152 0 330 -48v-374q-123 96 -279 96q-221 0 -297 -123h371v-248h-465q-2 -16 -2 -41q0 -31 2 -49h465v-248h-363q59 -113 316 -112q162 0 329 80l-180 -359q-117 -37 -266 -37q-256 0 -425 114 t-239 314h-182zM141 444h172q57 -207 223 -315.5t396 -108.5q152 0 235 29l111 223q-111 -37 -221 -36q-340 -1 -406 208h402v154h-455q-12 33 -12 96q0 51 8 88h459v154h-406q88 219 381 219q121 0 227 -53v241q-141 37 -278 37q-268 0 -435 -115.5t-223 -328.5h-178v-154 h142q-8 -39 -9 -102q0 -53 5 -82h-138v-154z" />
<glyph unicode="&#x2122;" horiz-adv-x="1515" d="M31 1251v195h573v-195h-178v-485h-217v485h-178zM74 1300h182v-491h123v491h182v101h-487v-101zM606 766l86 680h230l104 -260l109 260h217l100 -680h-211l-45 321l-149 -321h-43l-150 324l-35 -324h-213zM662 809h114l51 442l199 -420l197 422l61 -444h113l-86 592h-142 l-143 -316l-139 316h-152z" />
<glyph unicode="&#xe000;" horiz-adv-x="1013" d="M0 0v1014h1014v-1014h-1014z" />
<glyph unicode="&#xfb01;" horiz-adv-x="1323" d="M-25 733l134 279h22q0 78 5 127t36 121.5t92 123.5q121 98 324 99q109 0 209 -29v-285q-61 29 -111 29q-63 0 -106 -39q-47 -43 -48 -147h224v-279h-224v-733h-401v733h-156zM51 782h129v-733h303v733h226v181h-226v77q0 92 54.5 148.5t144.5 56.5q23 0 68 -8v178 q-92 18 -166 19q-180 0 -287 -88q-113 -92 -117 -295v-88h-41zM848 0v1012h395v-1012h-395zM848 1306.5q0 79.5 59.5 128t139 48.5t138 -48.5t58.5 -128t-57.5 -128t-141.5 -48.5q-80 0 -138 48.5t-58 128zM897 49h297v914h-297v-914zM897 1307q0 -61 45 -94t102 -33 q59 0 104.5 33.5t45.5 93t-45 93.5t-102 34q-59 0 -104.5 -35t-45.5 -92z" />
<glyph unicode="&#xfb02;" horiz-adv-x="1323" d="M-25 733l134 279h22q0 78 5 127t36 121.5t92 123.5q121 98 324 99q109 0 209 -29v-285q-68 29 -107 29q-66 0 -110 -39q-47 -43 -48 -147h218v-279h-218v-733h-401v733h-156zM51 782h129v-733h303v733h219v181h-219v77q0 88 54.5 146.5t144.5 58.5q23 0 68 -10v180 q-78 20 -156 21q-188 0 -297 -90q-113 -92 -117 -295v-88h-41zM844 0v1446h401v-1446h-401zM893 49h303v1348h-303v-1348z" />
</font>
</defs>
</svg>
