<?xml version="1.0" standalone="no"?>
<!DOCTYPE svg PUBLIC "-//W3C//DTD SVG 1.1//EN" "http://www.w3.org/Graphics/SVG/1.1/DTD/svg11.dtd" >
<svg xmlns="http://www.w3.org/2000/svg">
<metadata></metadata>
<defs>
<font id="delta_jaegerbook" horiz-adv-x="1150" >
<font-face units-per-em="2048" ascent="1638" descent="-410" />
<missing-glyph horiz-adv-x="598" />
<glyph horiz-adv-x="2048" />
<glyph horiz-adv-x="2048" />
<glyph unicode="&#xd;" horiz-adv-x="681" />
<glyph unicode=" "  horiz-adv-x="598" />
<glyph unicode="&#x09;" horiz-adv-x="598" />
<glyph unicode="&#xa0;" horiz-adv-x="598" />
<glyph unicode="!" horiz-adv-x="512" d="M113 118.5q0 55.5 38.5 96.5t96 41t96.5 -40t39 -97q0 -59 -40 -98t-95 -39q-57 0 -96 40.5t-39 96zM123 1446h258l-27 -950l-204 -123q-25 1024 -27 1073z" />
<glyph unicode="&#x22;" horiz-adv-x="720" d="M74 1522h221l-70 -613h-80zM426 1522h221l-69 -613h-80z" />
<glyph unicode="#" horiz-adv-x="1368" d="M80 451v176h309l29 215h-289v180h313l58 424h190l-59 -424h190l56 424h186l-57 -424h282v-180h-307l-29 -215h289v-176h-313l-62 -451h-190l67 451h-192l-66 -451h-184l61 451h-282zM575 627h191l31 215h-193z" />
<glyph unicode="$" horiz-adv-x="1024" d="M92 53v238q57 -45 153.5 -86t198.5 -41q109 0 178.5 53t69.5 160q0 80 -47 122t-172 101l-113 53q-262 125 -262 355q0 123 77 236.5t257 152.5v250h193v-242q154 -14 270 -70v-233q-137 119 -301 119q-113 0 -174.5 -56.5t-61.5 -132.5q0 -125 170 -198l134 -58 q303 -131 303 -387q0 -141 -91.5 -250.5t-248.5 -146.5v-258h-193v246q-193 6 -340 73z" />
<glyph unicode="%" horiz-adv-x="1851" d="M59 946q0 72 8.5 133.5t33 125t62.5 108.5t101.5 73.5t145.5 28.5q350 0 350 -471q0 -63 -7.5 -119.5t-30 -123t-59 -113.5t-102 -79t-153.5 -32q-348 0 -349 469zM252 950q0 -328 157.5 -327.5t157.5 327.5q0 322 -157.5 322t-157.5 -322zM530 0l605 1399h174 l-604 -1399h-175zM1092 453q0 72 8 133t32.5 124.5t62.5 108.5t101.5 74t145.5 29q350 0 350 -471q0 -63 -7 -120t-29.5 -123.5t-59.5 -113.5t-102.5 -78.5t-153.5 -31.5q-348 0 -348 469zM1284 457q0 -328 157.5 -328t157.5 328q0 322 -157.5 322t-157.5 -322z" />
<glyph unicode="&#x26;" horiz-adv-x="1449" d="M96 408q0 84 27 153.5t59.5 111.5t86 78.5t81 50t70.5 29.5q-104 129 -105 273q0 145 113 261t315 116q152 0 276 -90.5t124 -255.5q0 -57 -15.5 -107.5t-43 -87.5t-56.5 -65.5t-66.5 -50t-62.5 -34t-53.5 -22.5t-30.5 -12l651 -621l-166 -176l-282 264l-78 -192 q-164 -63 -338 -64q-188 0 -319 92q-186 125 -187 349zM362 438q0 -111 80 -188q86 -82 234 -82q155 0 315 82l-442 428q-74 -20 -130.5 -85t-56.5 -155zM571 1114q1 -111 105 -215q86 23 158.5 79t72.5 157q0 70 -46 119t-116 49q-78 0 -126 -55.5t-48 -133.5z" />
<glyph unicode="'" horiz-adv-x="368" d="M74 1522h221l-70 -613h-80z" />
<glyph unicode="(" horiz-adv-x="591" d="M63 639q0 256 90.5 513t237.5 419h211q-287 -438 -287 -930q0 -520 287 -936h-213q-150 170 -238 421t-88 513z" />
<glyph unicode=")" horiz-adv-x="591" d="M-10 -295q287 438 286 930q1 518 -286 936h213q150 -170 238.5 -423t88.5 -509t-91 -513t-236 -421h-213z" />
<glyph unicode="*" horiz-adv-x="768" d="M43 1145l47 141l219 -65v225h152v-225l215 75l49 -141l-215 -78l131 -184l-119 -88l-135 182l-131 -182l-125 88l133 184z" />
<glyph unicode="+" horiz-adv-x="1482" d="M190 532v216h420v438h262v-438h420v-216h-420v-442h-262v442h-420z" />
<glyph unicode="," horiz-adv-x="425" d="M-33 -270l191 491h250l-277 -491h-164z" />
<glyph unicode="-" horiz-adv-x="694" d="M8 446l125 179h555l-125 -179h-555z" />
<glyph unicode="." horiz-adv-x="425" d="M78 118.5q0 57.5 39 97.5t96 40q59 0 97 -40t38 -97q0 -63 -42 -100t-91 -37q-59 0 -98 39.5t-39 97z" />
<glyph unicode="/" horiz-adv-x="724" d="M0 0l500 1446h225l-496 -1446h-229z" />
<glyph unicode="0" d="M51 698q0 209 46 357.5t125 225.5t166 109.5t190 32.5q119 0 211 -37.5t146 -106.5t90 -140.5t50.5 -164.5t19.5 -152.5t5 -127.5q0 -358 -139.5 -538.5t-385.5 -180.5q-238 0 -381 170t-143 553zM322 690q0 -520 253.5 -520t253.5 530q0 532 -254 533q-82 0 -137 -57.5 t-77.5 -152.5t-30.5 -172t-8 -161z" />
<glyph unicode="1" d="M258 979v207l473 244v-1430h-256v1096z" />
<glyph unicode="2" d="M113 0v190l481 545q121 139 121 256q0 92 -60.5 157.5t-177.5 65.5q-90 0 -165.5 -40.5t-170.5 -139.5v262q193 127 396 127q180 0 297 -90q156 -115 155 -313q0 -111 -46 -197t-138 -192l-377 -434h643l-135 -197h-823z" />
<glyph unicode="3" d="M115 61v244q156 -125 354 -125q123 0 190.5 73t67.5 159q0 72 -35 123t-94 74.5t-116.5 33.5t-121.5 10q-53 0 -73 -2l127 185q137 0 193.5 69.5t56.5 136.5q0 70 -52.5 123.5t-148.5 53.5q-170 0 -328 -168v252q193 121 389 120q162 0 282 -97t120 -255 q0 -147 -105 -240q-25 -23 -121 -69q150 -39 224.5 -134.5t74.5 -228.5q0 -141 -81.5 -241.5t-191.5 -141.5t-228 -41q-90 0 -201.5 24.5t-181.5 61.5z" />
<glyph unicode="4" d="M0 352v66l602 981h289v-852h213l-135 -195h-78v-352h-248v352h-643zM319 547h328v579z" />
<glyph unicode="5" d="M111 59v244q168 -129 352 -129q129 0 212 74t83 194q0 31 -5 60.5t-30 77t-69 80t-131 58t-206 25.5q-92 0 -167 -8l108 664h721v-199h-504l-49 -289q387 0 528 -213q76 -113 76 -254q0 -195 -144.5 -332t-400.5 -137q-190 0 -374 84z" />
<glyph unicode="6" d="M92 512q0 338 232 629q126 156 276 258h375q-197 -100 -347.5 -262t-203.5 -310q2 0 24.5 14.5t30.5 19.5t34 16.5t45.5 15.5t48 9t59.5 5q158 0 274 -102q147 -127 147 -340q0 -215 -138 -352.5t-353 -137.5q-131 0 -231 48q-109 51 -191 170.5t-82 318.5zM356 451 q0 -109 54.5 -196t175.5 -87q78 0 130 38t72.5 95t27.5 94t7 68q0 113 -59 189.5t-172 76.5q-111 0 -173.5 -79.5t-62.5 -198.5z" />
<glyph unicode="7" d="M150 1204v195h978l-641 -1399h-276l559 1204h-620z" />
<glyph unicode="8" d="M72 389q0 109 53 191t109.5 115.5t109.5 45.5q-41 18 -66.5 34t-67.5 51.5t-63.5 92t-21.5 130.5q0 164 124 269t326 105q217 0 335 -113.5t118 -265.5q0 -76 -26.5 -135t-69.5 -94t-70.5 -50.5t-54.5 -23.5q41 -10 81 -30.5t87 -59.5t75.5 -105.5t28.5 -152.5 q0 -190 -145.5 -304t-356 -114t-358 111t-147.5 303zM332 410q0 -109 72.5 -176.5t170.5 -67.5q104 0 173 68.5t69 175t-69.5 177t-174.5 70.5q-102 0 -171.5 -72.5t-69.5 -174.5zM375 1024q0 -86 58.5 -143.5t144.5 -57.5q84 0 142 56.5t58 150.5t-59.5 147.5t-140.5 53.5 q-92 0 -147.5 -61.5t-55.5 -145.5z" />
<glyph unicode="9" d="M61 934q0 213 137.5 351t360.5 138q129 0 238.5 -52t185.5 -178t76 -310q0 -152 -46 -293t-125 -251t-162 -191.5t-177 -147.5h-375q195 98 343.5 258t209.5 313q-121 -80 -242 -79q-186 0 -305 129t-119 313zM326 936q0 -127 66.5 -196.5t164.5 -69.5q115 0 176.5 79.5 t61.5 202.5t-62.5 201t-167.5 78q-109 0 -174 -82t-65 -213z" />
<glyph unicode=":" horiz-adv-x="512" d="M123 118.5q0 55.5 39 96.5t96 41t96 -40t39 -97.5t-39 -97t-96 -39.5t-96 40.5t-39 96zM123 889q0 55 39 96t96 41t96 -40t39 -97.5t-39 -97t-96 -39.5t-96 41t-39 96z" />
<glyph unicode=";" horiz-adv-x="512" d="M-41 -272l191 493h249l-276 -493h-164zM145 889q0 55 38 96t100 41q57 0 96 -41t39 -96q0 -57 -39 -97t-96 -40q-59 0 -98.5 41t-39.5 96z" />
<glyph unicode="&#x3c;" horiz-adv-x="1482" d="M231 526v248l953 469v-252l-713 -334l713 -340v-260z" />
<glyph unicode="=" horiz-adv-x="1482" d="M203 295v225h1077v-225h-1077zM203 719v225h1077v-225h-1077z" />
<glyph unicode="&#x3e;" horiz-adv-x="1482" d="M293 53v252l713 334l-713 340v260l952 -469v-248z" />
<glyph unicode="?" horiz-adv-x="854" d="M78 1178v229q174 70 325 70q268 0 385 -177q63 -94 64 -208q0 -152 -99.5 -255.5t-260.5 -119.5v-207l-234 -135v475q338 12 338 229q0 78 -59.5 135.5t-174.5 57.5q-135 0 -284 -94zM238 121q0 55 38.5 95t94.5 40q59 0 97 -40t38 -99q-2 -57 -40 -96t-95 -39 q-55 0 -94 40.5t-39 98.5z" />
<glyph unicode="@" horiz-adv-x="1787" d="M102 520q0 401 264.5 669.5t661.5 268.5q303 0 482.5 -165t179.5 -445q0 -270 -152 -485.5t-344 -215.5q-161 0 -188 162l-132 -147q-39 -4 -77 -4q-147 0 -230.5 86t-83.5 237q0 248 157 418t388 170q145 0 309 -68l-108 -452q-29 -121 -29 -184q0 -61 55 -62 q43 0 91 53q78 90 126 220.5t48 254.5q0 233 -134.5 362.5t-377.5 129.5q-322 0 -527 -229q-203 -225 -202 -553q0 -291 188 -466t483 -175q336 0 654 243l-68 -221q-125 -72 -211 -100q-205 -72 -414 -72q-367 0 -588 211t-221 559zM686 496q0 -94 42 -145.5t118 -51.5 q70 0 158 63l122 539q-59 20 -116 21q-147 0 -235.5 -129t-88.5 -297z" />
<glyph unicode="A" horiz-adv-x="1409" d="M0 0l584 1446h262l563 -1446h-293l-133 358h-575l-138 -358h-270zM473 539h447l-218 608z" />
<glyph unicode="B" horiz-adv-x="1193" d="M121 0v1446h520q45 0 98.5 -7t139.5 -44t133 -101q63 -86 63 -204q0 -135 -76.5 -214t-181.5 -110q137 -23 225 -116t88 -232q0 -117 -63 -215q-133 -203 -442 -203h-504zM381 197h125q72 0 110.5 3t95 24.5t93.5 64.5q55 63 55 149q0 78 -47 131q-37 43 -97.5 66.5 t-106.5 28t-117 4.5h-111v-471zM381 692l111 156h38q121 0 203 56.5t82 158.5q0 78 -46 121t-99.5 53t-126.5 10h-162v-555z" />
<glyph unicode="C" horiz-adv-x="1366" d="M63 713q0 268 150 465q92 121 258 213t420 92q239 0 405 -70v-248q-57 37 -93 56.5t-115.5 41t-172.5 21.5q-244 0 -405.5 -153.5t-161.5 -399.5q0 -248 166 -408.5t447 -160.5q180 0 403 76l-137 -234q-154 -41 -324 -41q-358 0 -581 184q-127 102 -193 251t-66 315z " />
<glyph unicode="D" horiz-adv-x="1449" d="M121 0v1446h502q334 0 532 -172q115 -98 173 -243.5t58 -301.5q0 -330 -209.5 -529.5t-531.5 -199.5h-524zM387 201h178q147 0 256 46t168.5 124t86 166t26.5 188q0 233 -137.5 373.5t-401.5 140.5h-176v-1038z" />
<glyph unicode="E" horiz-adv-x="1067" d="M121 0v1446h848v-205h-580v-385h500v-205h-500v-444h674l-119 -207h-823z" />
<glyph unicode="F" horiz-adv-x="980" d="M121 0v1446h860v-203h-590v-403h508v-207h-508v-633h-270z" />
<glyph unicode="G" horiz-adv-x="1536" d="M61 719q0 199 79 339t171 220q229 205 594 205q214 0 443 -78v-250q-221 125 -424 125q-272 0 -426 -163t-154 -396q0 -223 135 -383q156 -178 414 -178q147 0 278 65q6 303 7 332h-371l121 199h508l-11 -656q-270 -137 -563 -137q-371 0 -586 216t-215 540z" />
<glyph unicode="H" horiz-adv-x="1449" d="M121 0v1446h268v-578h674v578h268v-1446h-268v662h-674v-662h-268z" />
<glyph unicode="I" horiz-adv-x="512" d="M121 0v1446h270v-1446h-270z" />
<glyph unicode="J" horiz-adv-x="768" d="M-23 14l115 189q61 -23 117 -23q117 0 158 101q24 53 24 234v15v916h268v-1010q0 -166 -39.5 -246.5t-113.5 -132.5q-117 -82 -291 -82q-127 0 -238 39z" />
<glyph unicode="K" horiz-adv-x="1280" d="M121 0v1446h268v-664l518 664h299l-530 -664l635 -782h-324l-598 743v-743h-268z" />
<glyph unicode="L" horiz-adv-x="1067" d="M121 0v1446h268v-1239h686l-119 -207h-835z" />
<glyph unicode="M" horiz-adv-x="1878" d="M74 0l157 1446h275l432 -950l426 950h270l164 -1446h-268l-100 1053l-488 -1053h-29l-483 1059l-100 -1059h-256z" />
<glyph unicode="N" horiz-adv-x="1536" d="M121 0v1446h252l788 -897q-8 852 -8 897h262v-1446h-94l-942 1044q8 -1012 8 -1044h-266z" />
<glyph unicode="O" horiz-adv-x="1662" d="M63 719q0 317 210 540.5t558 223.5q342 0 556.5 -217.5t214.5 -536.5q0 -322 -208 -544t-554 -222q-352 0 -564.5 214t-212.5 542zM350 723q0 -236 133 -394.5t354.5 -158.5t349.5 166t128 385q0 246 -136.5 403.5t-344.5 157.5q-211 0 -347.5 -158.5t-136.5 -400.5z" />
<glyph unicode="P" horiz-adv-x="1110" d="M121 0v1446h497q303 0 429 -197q63 -100 63 -217q0 -76 -41 -174t-149 -170q-145 -92 -406 -92h-123v-596h-270zM391 625l119 163h41q31 0 68.5 8.5t90 30t86 72.5t33.5 127q0 117 -73.5 169t-190.5 52h-174v-622z" />
<glyph unicode="Q" horiz-adv-x="1662" d="M63 719q0 303 191 518q219 246 580 246q276 0 473 -146q47 -35 91 -82t94 -120.5t80 -179t30 -226.5q0 -229 -101 -395q-39 -63 -106 -141l239 -236l-174 -172l-264 262q-168 -84 -362 -84q-315 0 -533 195q-238 213 -238 561zM352 721q0 -41 6.5 -88t27 -123 t72.5 -147.5t128 -120.5q117 -72 254 -72q178 0 301 117q72 66 112.5 159t50 149t9.5 105q0 352 -226 504q-119 78 -256 78q-102 0 -192 -43q-61 -31 -119.5 -83t-113 -169t-54.5 -266z" />
<glyph unicode="R" horiz-adv-x="1280" d="M121 0v1446h526q264 0 383 -168q70 -98 70 -229q0 -35 -7.5 -74t-29 -93.5t-71.5 -107.5t-122 -88l422 -686h-301l-383 627q-72 -6 -145 -6h-76v-621h-266zM387 645l115 162q2 0 19.5 -1t31.5 -1q37 0 77 8t88 29.5t78.5 71t30.5 118.5q0 74 -36 127q-29 41 -76 61.5 t-85 24.5t-98 4h-145v-604z" />
<glyph unicode="S" horiz-adv-x="1110" d="M92 47v250q203 -133 389 -133q143 0 211 69.5t68 153.5q0 63 -39 112.5t-81 72t-116 53.5l-90 37q-334 137 -334 399q0 170 133.5 296t380.5 126q186 0 357 -76v-244q-160 123 -344 123q-94 0 -171 -49t-77 -152q0 -47 20.5 -85.5t63.5 -66.5t71.5 -42t81.5 -37l105 -43 q150 -61 236.5 -162.5t86.5 -242.5q0 -104 -47 -193q-45 -84 -120.5 -140.5t-157.5 -77t-130 -26.5t-89 -6q-185 0 -408 84z" />
<glyph unicode="T" d="M0 1241v205h1151v-205h-440v-1241h-269v1241h-442z" />
<glyph unicode="U" horiz-adv-x="1492" d="M115 518v928h270v-893q0 -389 365 -389q360 0 360 399v883h268v-918q0 -129 -35.5 -230t-99 -159.5t-128 -96.5t-145.5 -53.5t-128 -20.5t-97 -5q-96 0 -182 16.5t-170 56.5t-144.5 101.5t-97 158.5t-36.5 222z" />
<glyph unicode="V" horiz-adv-x="1409" d="M0 1446h297l416 -1131l428 1131h268l-584 -1446h-250z" />
<glyph unicode="W" horiz-adv-x="1961" d="M0 1446h287l241 -1102l445 1102h31l430 -1102l262 1102h266l-371 -1446h-274l-342 864l-344 -864h-266z" />
<glyph unicode="X" horiz-adv-x="1323" d="M0 0l512 748l-477 698h309l324 -475l327 475h301l-481 -696l508 -750h-309l-352 524l-365 -524h-297z" />
<glyph unicode="Y" horiz-adv-x="1323" d="M0 1446h297l375 -653l375 653h276l-524 -899v-547h-273v547z" />
<glyph unicode="Z" horiz-adv-x="1323" d="M59 0v197l850 1042h-788v207h1126v-201l-846 -1036h928l-121 -209h-1149z" />
<glyph unicode="[" horiz-adv-x="602" d="M133 -295v1868h428v-182h-182v-1504h182v-182h-428z" />
<glyph unicode="\" horiz-adv-x="724" d="M0 1446h225l500 -1446h-229z" />
<glyph unicode="]" horiz-adv-x="602" d="M41 -115h182v1504h-182v182h428v-1866h-428v180z" />
<glyph unicode="^" horiz-adv-x="1482" d="M190 582l428 864h254l420 -864h-272l-279 632l-286 -632h-265z" />
<glyph unicode="_" horiz-adv-x="1024" d="M-20 -281h1064v-161h-1064v161z" />
<glyph unicode="`" horiz-adv-x="598" d="M98 1403v225l420 -317v-197z" />
<glyph unicode="a" horiz-adv-x="980" d="M41 281q0 33 6 68.5t35 87.5t75 90t138 67t213 29q18 0 38.5 -1t47.5 -3.5t41 -2.5v19q0 45 -5 74.5t-22.5 70.5t-63.5 62.5t-118 21.5h-3q-118 0 -302 -71l125 211q127 32 243 32h7q373 0 372 -350v-463q0 -172 17 -223h-234q-14 31 -16 150l-115 -160q-61 -14 -131 -15 q-33 0 -67.5 4.5t-88 22.5t-93.5 49t-69.5 90.5t-29.5 139.5zM285 289q0 -57 38.5 -102.5t133.5 -45.5q84 0 178 49v267q-33 4 -90 4q-260 0 -260 -172z" />
<glyph unicode="b" d="M115 84v1362h241v-598l117 170q102 18 166 18q141 0 248 -65q72 -45 119 -109.5t65.5 -134.5t23.5 -112t5 -80q0 -213 -117 -365q-147 -195 -436 -195q-215 0 -432 109zM356 213q82 -57 199 -57q145 0 219 102t74 252q0 145 -70.5 243.5t-222.5 98.5q-113 0 -199 -45 v-594z" />
<glyph unicode="c" horiz-adv-x="894" d="M51 500q0 244 164 397q152 141 389 141q135 0 270 -55v-213q-117 88 -245 88q-100 0 -170 -43t-98.5 -107.5t-40 -113.5t-11.5 -88q0 -160 97.5 -259.5t255.5 -99.5q86 0 251 54l-116 -193q-109 -33 -211 -33q-246 0 -390.5 152t-144.5 373z" />
<glyph unicode="d" d="M51 489q0 133 45 242q16 43 45 87t80 97.5t134 87t184 33.5q145 0 256 -65v475h241v-1446h-241v170l-117 -170q-74 -25 -150 -25q-92 0 -167.5 24t-124 60.5t-85 88t-55 98.5t-30 99t-13.5 84t-2 60zM305 487q0 -156 78 -243.5t213 -87.5q95 0 199 49v588q-94 59 -199 59 q-150 0 -234 -129q-57 -92 -57 -236z" />
<glyph unicode="e" horiz-adv-x="1024" d="M51 504q0 119 35 217q12 35 31.5 70.5t57.5 82t85 80t120 58t159 24.5q248 0 366 -176q86 -128 90 -368h-686q0 -41 8.5 -82t32 -90.5t61.5 -85t105.5 -60t155.5 -24.5q145 0 289 61l-117 -203q-115 -33 -242 -33q-266 0 -409 146q-141 141 -142 383zM313 643h437 q-2 106 -59.5 168.5t-149.5 62.5q-61 0 -107.5 -28.5t-70 -72.5t-35 -73.5t-15.5 -56.5z" />
<glyph unicode="f" horiz-adv-x="598" d="M20 840l107 172h25v108q0 63 13 119.5t47 113t104.5 89.5t172.5 33q61 0 138 -19v-184q-51 22 -91 22h-4q-88 0 -115.5 -50t-27.5 -154v-78h197v-172h-197v-840h-237v840h-132z" />
<glyph unicode="g" d="M51 506q0 188 103 325q154 207 469 207q237 0 415 -90v-837q0 -111 -20 -181q-12 -43 -34.5 -86t-67 -92t-99.5 -85t-139 -59.5t-184 -23.5q-219 0 -392 86v226q92 -72 196.5 -99.5t176.5 -27.5q162 0 242 86q51 55 66.5 125.5t15.5 171.5v73l-119 -168q-70 -18 -150 -18 q-172 0 -288 80q-190 133 -191 387zM307 530q0 -143 77 -228t208 -85q105 0 207 51v555q-90 35 -183 35q-25 0 -53 -4t-77.5 -23.5t-86.5 -52.5t-64.5 -97.5t-27.5 -150.5z" />
<glyph unicode="h" d="M115 0v1446h243v-625l123 185q119 30 196 30h5q356 0 356 -360v-676h-239v592q0 51 -6.5 90t-25.5 81t-64.5 65.5t-112.5 23.5q-121 0 -232 -76v-776h-243z" />
<glyph unicode="i" horiz-adv-x="468" d="M106 1351.5q0 53.5 38 88.5t89 35q53 0 91 -34t38 -89q0 -53 -37.5 -88t-91.5 -35q-51 0 -89 34.5t-38 88zM115 0v1012h239v-1012h-239z" />
<glyph unicode="j" horiz-adv-x="468" d="M106 1354q0 51 38 86t91.5 35t90 -35t36.5 -88.5t-37.5 -88t-91 -34.5t-90.5 35.5t-37 89.5zM115 -424v1436h239v-1293z" />
<glyph unicode="k" horiz-adv-x="1067" d="M115 0v1446h241v-864l410 430h281l-424 -449l481 -563h-297l-451 535v-535h-241z" />
<glyph unicode="l" horiz-adv-x="468" d="M115 0v1446h239v-1446h-239z" />
<glyph unicode="m" horiz-adv-x="1792" d="M115 0v1012h239v-178l119 165q102 37 207 37q129 0 213 -56t111 -159l126 180q111 37 209 37q168 0 253 -88t85 -241v-709h-241v551q0 104 -8.5 157.5t-36.5 84.5q-53 57 -150 57q-104 0 -229 -78q4 -27 4 -78v-694h-240v616q0 233 -196 234q-100 0 -226 -68v-782h-239z " />
<glyph unicode="n" d="M115 0v1012h239v-191l131 183q89 32 198 32h7q348 0 348 -379v-657h-239v588q0 39 -2 67.5t-14.5 68.5t-35 64.5t-64.5 43t-101 18.5q-113 0 -228 -76v-774h-239z" />
<glyph unicode="o" horiz-adv-x="1110" d="M51 495.5q0 233.5 140.5 387t371.5 153.5q229 0 362.5 -146.5t133.5 -377.5q0 -240 -136.5 -388.5t-373.5 -148.5q-231 0 -364.5 143.5t-133.5 377zM307 504q0 -145 58.5 -249.5t187.5 -104.5t190.5 108.5t61.5 247.5q0 147 -59.5 252.5t-192.5 105.5q-90 0 -148.5 -60.5 t-78 -136t-19.5 -163.5z" />
<glyph unicode="p" d="M115 -428v1440h241v-170l117 168q73 26 154 26h6q106 0 188 -29.5t130 -82t81 -106.5t46.5 -118.5t17.5 -102.5t4 -73q0 -123 -37 -227q-53 -150 -173 -236t-280 -86q-129 0 -254 66v-469h-241zM356 221q84 -61 201 -61q135 0 213 99t78 263q0 96 -28.5 166t-76 104.5 t-93.5 50t-95 15.5q-95 0 -199 -49v-588z" />
<glyph unicode="q" d="M51 477q0 252 155.5 405.5t395.5 153.5q221 0 436 -110v-1354h-239v596l-115 -170q-94 -23 -168 -23q-199 0 -330 131q-135 135 -135 371zM307 487q0 -129 67.5 -230t221.5 -101q99 0 203 51v590q-98 55 -197 55q-41 0 -84 -13.5t-94 -48t-84 -112.5t-33 -191z" />
<glyph unicode="r" horiz-adv-x="724" d="M115 0v1012h245v-176l117 163q84 33 191 33q47 0 94 -14v-234q-115 57 -197 58q-109 0 -205 -62v-780h-245z" />
<glyph unicode="s" horiz-adv-x="811" d="M74 45v201q147 -98 270 -99q86 0 126 45.5t40 96.5q0 94 -143 145l-80 29q-213 78 -213 262q0 152 110.5 231.5t259.5 79.5q137 0 267 -63v-197q-98 92 -226 92q-84 0 -123.5 -40t-39.5 -91q0 -35 20 -61.5t43 -39.5t61 -28l103 -41q215 -86 215 -274q0 -88 -49 -164 q-98 -154 -334 -154q-168 0 -307 70z" />
<glyph unicode="t" horiz-adv-x="641" d="M23 840l106 172h27v190l237 76v-266h228v-172h-232q0 -2 -2 -238.5t-2 -265.5q0 -98 34 -141t120 -43q49 0 131 26l-140 -188q-76 -14 -120 -15q-125 0 -194 69t-69 202l7 594h-131z" />
<glyph unicode="u" d="M115 340v672h241v-590q0 -147 47.5 -203.5t157.5 -56.5q125 0 238 78v772h239v-1012h-239v193l-129 -185q-102 -33 -203 -33q-156 0 -250 84q-61 55 -81.5 117t-20.5 164z" />
<glyph unicode="v" horiz-adv-x="1024" d="M0 1012h262l262 -768l252 768h248l-381 -1012h-256z" />
<glyph unicode="w" horiz-adv-x="1492" d="M0 1012h254l156 -762l233 762h225l232 -762l160 762h233l-244 -1012h-268l-236 715l-223 -715h-270z" />
<glyph unicode="x" horiz-adv-x="1067" d="M0 0l389 530l-350 482h276l226 -310l229 310h256l-346 -473l387 -539h-281l-256 360l-264 -360h-266z" />
<glyph unicode="y" horiz-adv-x="1024" d="M0 1012h256l268 -768l254 768h246l-395 -1030q-78 -203 -189.5 -295.5t-306.5 -92.5q-49 0 -113 11l62 176q45 -4 70 -4q160 0 239 227z" />
<glyph unicode="z" horiz-adv-x="980" d="M66 0v178l559 653h-514v181h809v-178l-555 -650h604l-107 -184h-796z" />
<glyph unicode="{" horiz-adv-x="643" d="M18 553v164q106 12 141.5 49t35.5 164v307q0 190 56 262t224 72h125v-162h-29q-86 0 -110.5 -42t-24.5 -173v-287q0 -125 -33.5 -179t-134.5 -93q98 -31 133 -87t35 -181v-297q0 -125 29 -164t115 -39h20v-162h-115q-174 0 -232 71.5t-58 258.5v305q0 127 -32 165 t-145 48z" />
<glyph unicode="|" horiz-adv-x="524" d="M139 -295v1868h246v-1868h-246z" />
<glyph unicode="}" horiz-adv-x="643" d="M43 -131h29q86 0 110.5 42t24.5 173v287q0 125 33.5 179t134.5 93q-98 31 -133 87t-35 181v297q0 125 -28.5 164t-115.5 39h-20v162h115q174 0 232.5 -71.5t58.5 -258.5v-305q0 -127 31.5 -165t144.5 -48v-164q-106 -12 -141 -49t-35 -164v-307q0 -190 -56.5 -262 t-224.5 -72h-125v162z" />
<glyph unicode="~" horiz-adv-x="1482" d="M174 438v281q119 137 272 137q88 0 271 -80l108 -47q111 -49 176 -49q76 0 142 37.5t166 148.5v-280q-86 -84 -159 -118t-155 -34q-106 0 -258 76l-73 37q-123 61 -211 61q-135 0 -279 -170z" />
<glyph unicode="&#xa1;" horiz-adv-x="512" d="M131 -2l27 952l204 121q27 -1042 27 -1073h-258zM131 1329q0 57 40 96t97 39q55 0 94 -41t39 -96q0 -57 -38.5 -96t-96.5 -39q-59 0 -97 40t-38 97z" />
<glyph unicode="&#xa2;" horiz-adv-x="1001" d="M94 487q0 78 20.5 157t63.5 157t124 136t190 81v237h190v-221q125 -8 225 -53v-213q-121 86 -243 86q-147 0 -232.5 -103.5t-85.5 -244.5q0 -158 97.5 -258.5t254.5 -100.5q39 0 82 8.5t68.5 15.5t59.5 19.5t36 12.5l-110 -197q-86 -25 -152 -24v-230h-190v238 q-168 31 -283 167t-115 330z" />
<glyph unicode="&#xa3;" horiz-adv-x="1193" d="M68 600v184h243v103q0 262 140.5 397t367.5 135q55 0 101.5 -6t66 -11t65.5 -21.5t58 -20.5v-236q-111 98 -260 99q-78 0 -135.5 -30t-86 -69t-46 -91t-20.5 -83.5t-3 -62.5v-103h356v-184h-356v-405h694l-110 -195h-955l123 195v405h-243z" />
<glyph unicode="&#xa4;" horiz-adv-x="1396" d="M82 221l160 158q-100 141 -101 315q0 168 101 316l-158 155l143 142l156 -154q143 98 317 98q168 0 314 -98l157 156l144 -144l-158 -157q98 -160 98 -314q0 -162 -100 -317l158 -160l-144 -141l-157 160q-94 -57 -160 -78t-154 -21q-166 0 -315 101l-160 -158z M369 694.5q0 -143.5 95 -240t238 -96.5q137 0 231.5 96.5t94.5 235.5q0 145 -94 242.5t-234 97.5q-141 0 -236 -96t-95 -239.5z" />
<glyph unicode="&#xa5;" horiz-adv-x="1345" d="M23 1399h303l358 -645l358 645h281l-362 -604h206v-148h-293l-69 -112v-35h362v-146h-362v-354h-262v354h-369v146h369v37l-70 110h-299v148h211z" />
<glyph unicode="&#xa6;" horiz-adv-x="524" d="M139 -295v807h246v-807h-246zM139 764v807h246v-807h-246z" />
<glyph unicode="&#xa7;" horiz-adv-x="980" d="M68 522q0 100 62.5 199.5t201.5 148.5q-170 123 -170 281q0 133 101.5 232.5t299.5 99.5q156 0 299 -72v-240q-125 119 -252 119q-84 0 -133 -42t-49 -109q0 -88 139 -172l105 -62q250 -145 250 -350q0 -127 -71 -217t-173 -139l20 -19l31.5 -31.5t31 -38t31 -50 t20.5 -58.5t9 -72q0 -121 -84 -219q-117 -135 -323 -135q-190 0 -303 68v243q131 -113 254 -112q57 0 97 19.5t58.5 48t26.5 53t8 45.5q0 61 -42 103t-116 83l-84 49q-137 82 -191 160t-54 186zM311 555q1 -140 191 -240q176 72 176 217q0 131 -182 230 q-96 -29 -140.5 -89.5t-44.5 -117.5z" />
<glyph unicode="&#xa8;" horiz-adv-x="598" d="M-4 1333q0 51 33.5 88t87 37t90.5 -34.5t37 -90.5q0 -53 -38 -88t-89 -35t-86 36t-35 87zM356 1333q0 51 35 88t88 37t89 -34.5t36 -90.5q0 -53 -37 -88t-88 -35t-87 36t-36 87z" />
<glyph unicode="&#xa9;" horiz-adv-x="1638" d="M90 727q0 303 212 514t517 211q307 0 518 -212t211 -521q0 -299 -214 -512t-517 -213q-305 0 -516 213t-211 520zM172 721q0 -270 189.5 -460.5t457.5 -190.5q266 0 455.5 190.5t189.5 458.5q0 276 -186 466.5t-459 190.5q-270 0 -458.5 -190.5t-188.5 -464.5zM412 719 q0 209 128 340t330 131q125 0 236 -51v-201q-92 78 -211 78t-190.5 -81t-71.5 -214q0 -137 81 -219t216 -82q94 0 211 47l-105 -186q-92 -27 -172 -27q-199 0 -325.5 130t-126.5 335z" />
<glyph unicode="&#xaa;" horiz-adv-x="641" d="M31 971q0 100 76.5 163.5t224.5 63.5q14 0 32.5 -1t31 -2t14.5 -1q0 74 -27 109.5t-102 35.5q-86 0 -205 -51l88 152q82 23 162 22q244 0 243 -219v-280q1 -148 15 -175h-162q-10 33 -12 82l-64 -88q-41 -10 -80 -10q-121 0 -178 60.5t-57 138.5zM199 979q0 -88 102 -88 q58 0 109 29v161q-12 2 -45 2q-45 -2 -75 -6t-60.5 -28.5t-30.5 -69.5z" />
<glyph unicode="&#xab;" horiz-adv-x="894" d="M39 537l223 321h215l-221 -321l221 -324h-215zM420 537l221 321h217l-223 -321l223 -324h-217z" />
<glyph unicode="&#xac;" horiz-adv-x="1482" d="M141 528v220h1159v-717h-262v497h-897z" />
<glyph unicode="&#xad;" horiz-adv-x="694" d="M8 446l125 179h555l-125 -179h-555z" />
<glyph unicode="&#xae;" horiz-adv-x="1638" d="M90 727q0 303 212 514t517 211q307 0 518 -212t211 -521q0 -299 -214 -512t-517 -213q-305 0 -516 213t-211 520zM172 721q0 -270 189.5 -460.5t457.5 -190.5q266 0 455.5 190.5t189.5 458.5q0 276 -186 466.5t-459 190.5q-270 0 -458.5 -190.5t-188.5 -464.5zM514 285 v882h236q139 0 204 -16q90 -20 143.5 -87t53.5 -157q0 -158 -152 -235l234 -387h-219l-199 360q-29 -4 -76 -4h-32v-356h-193zM707 674l69 108h25q72 0 111.5 32t39.5 89q0 59 -42 88t-136 29h-67v-346z" />
<glyph unicode="&#xaf;" horiz-adv-x="598" d="M14 1219v176h570v-176h-570z" />
<glyph unicode="&#xb0;" horiz-adv-x="724" d="M31 1216.5q0 137.5 97 233.5t234.5 96t233.5 -96t96 -233q0 -133 -96 -231.5t-236 -98.5q-137 0 -233 96t-96 233.5zM201 1221q0 -68 48 -115t113 -47q68 0 115 47t47 115q0 66 -47 113.5t-114.5 47.5t-114.5 -48t-47 -113z" />
<glyph unicode="&#xb1;" horiz-adv-x="1482" d="M190 0v217h1102v-217h-1102zM190 748v213h420v411h262v-411h420v-213h-420v-418h-262v418h-420z" />
<glyph unicode="&#xb2;" horiz-adv-x="819" d="M96 494v131l316 350q78 88 77 155q0 51 -37.5 91.5t-105.5 40.5q-113 0 -231 -125v194q137 84 268 84q113 0 211 -68.5t98 -195.5t-123 -258l-233 -254h422l-105 -145h-557z" />
<glyph unicode="&#xb3;" horiz-adv-x="819" d="M98 532v177q45 -39 114 -66t124 -27q172 0 172 144q0 76 -64.5 112.5t-169.5 36.5h-65l94 127q49 4 97.5 37t48.5 88q0 49 -31 78t-82 29q-111 0 -221 -111v176q139 82 264 82q121 0 198.5 -65.5t77.5 -167.5q0 -78 -35.5 -121t-105.5 -78q86 -20 137 -82.5t51 -144.5 q0 -123 -94 -201t-243 -78q-139 0 -267 55z" />
<glyph unicode="&#xb4;" horiz-adv-x="598" d="M98 1116v195l420 319v-225z" />
<glyph unicode="&#xb6;" horiz-adv-x="1310" d="M145 1028q0 188 121 305q66 61 144.5 87t212.5 26h475v-141h-70v-1647h-149v1647h-265v-1647h-151v981q-147 31 -232.5 131t-85.5 258z" />
<glyph unicode="&#xb7;" horiz-adv-x="458" d="M86 569q0 61 41 103.5t102 42.5q59 0 101.5 -42t42.5 -103.5t-42 -102.5t-101.5 -41t-101.5 42t-42 101z" />
<glyph unicode="&#xb8;" horiz-adv-x="598" d="M127 -383q80 6 122 38t42 73q0 43 -32 67.5t-85 26.5l98 209h125l-63 -135q137 -40 137 -177q0 -98 -91 -164.5t-253 -76.5v139z" />
<glyph unicode="&#xb9;" horiz-adv-x="819" d="M199 1110v150l340 165v-931h-191v690z" />
<glyph unicode="&#xba;" horiz-adv-x="724" d="M35 1112.5q0 149.5 91 249.5t243 100q49 0 99 -15t103.5 -51t86 -110t32.5 -174q0 -25 -4 -56.5t-23.5 -83.5t-52 -94t-98.5 -73t-154 -31q-152 0 -237.5 94.5t-85.5 244zM209 1116q0 -106 41 -162.5t112 -56.5q68 0 111 57t43 166q0 82 -35 150.5t-119 68.5 q-86 0 -119.5 -69.5t-33.5 -153.5z" />
<glyph unicode="&#xbb;" horiz-adv-x="894" d="M39 213l221 322l-221 323h215l223 -323l-221 -322h-217zM418 213l223 322l-223 323h217l221 -323l-221 -322h-217z" />
<glyph unicode="&#xbc;" horiz-adv-x="1851" d="M205 1110v150l340 165v-931h-191v690zM526 0l604 1399h175l-605 -1399h-174zM993 223l43 111l361 571h198v-538h144l-92 -144h-52v-223h-176v223h-426zM1217 367h202q0 211 2 338z" />
<glyph unicode="&#xbd;" horiz-adv-x="1851" d="M162 1110v150l340 165v-931h-191v690zM473 0l604 1399h174l-604 -1399h-174zM1108 0v131l315 350q78 88 78 156q0 51 -38 91t-105 40q-113 0 -232 -125v195q137 84 269 84q113 0 211 -69t98 -196t-123 -258l-233 -254h421l-104 -145h-557z" />
<glyph unicode="&#xbe;" horiz-adv-x="1851" d="M141 532v177q45 -39 114 -66t124 -27q172 0 172 144q0 76 -64.5 112.5t-169.5 36.5h-65l94 127q49 4 97.5 37t48.5 88q0 49 -31 78t-82 29q-111 0 -221 -111v176q139 82 264 82q121 0 198.5 -65.5t77.5 -167.5q0 -78 -35.5 -121t-105.5 -78q86 -20 137 -82.5t51 -144.5 q0 -123 -94 -201t-243 -78q-139 0 -267 55zM571 0l605 1399h174l-605 -1399h-174zM1030 223l43 111l361 571h198v-538h144l-93 -144h-51v-223h-176v223h-426zM1253 367h203q0 211 2 338z" />
<glyph unicode="&#xbf;" horiz-adv-x="854" d="M2 356q0 152 99.5 255.5t260.5 119.5v207l234 135v-475q-338 -12 -338 -229q0 -78 59.5 -135.5t174.5 -57.5q135 0 284 94v-229q-174 -70 -325 -70q-268 0 -385 176q-63 94 -64 209zM348 1331q2 57 40 96t95 39q55 0 94 -41t39 -98q0 -55 -38.5 -95t-94.5 -40 q-59 0 -97 40t-38 99z" />
<glyph unicode="&#xc0;" horiz-adv-x="1409" d="M0 0l584 1446h262l563 -1446h-293l-133 358h-575l-138 -358h-270zM428 1749v211l492 -240v-184zM473 539h447l-218 608z" />
<glyph unicode="&#xc1;" horiz-adv-x="1409" d="M0 0l584 1446h262l563 -1446h-293l-133 358h-575l-138 -358h-270zM473 539h447l-218 608zM524 1538v180l492 242v-211z" />
<glyph unicode="&#xc2;" horiz-adv-x="1409" d="M0 0l584 1446h262l563 -1446h-293l-133 358h-575l-138 -358h-270zM395 1534v166l307 207l312 -199v-176l-312 168zM473 539h447l-218 608z" />
<glyph unicode="&#xc3;" horiz-adv-x="1409" d="M0 0l584 1446h262l563 -1446h-293l-133 358h-575l-138 -358h-270zM387 1579v170q78 96 184 96q51 0 148 -43q84 -37 141 -37q90 0 174 88v-172q-63 -96 -178 -96q-53 0 -160 41q-98 37 -133 37q-96 0 -176 -84zM473 539h447l-218 608z" />
<glyph unicode="&#xc4;" horiz-adv-x="1409" d="M0 0l584 1446h262l563 -1446h-293l-133 358h-575l-138 -358h-270zM385 1698q0 51 35 89t88 38t89 -36t36 -91.5t-37 -91t-88 -35.5t-87 37t-36 90zM473 539h447l-218 608zM780 1698q0 51 35 89t88 38t90 -36t37 -91q0 -53 -38 -90t-89 -37t-87 37t-36 90z" />
<glyph unicode="&#xc5;" horiz-adv-x="1409" d="M0 0l584 1446h262l563 -1446h-293l-133 358h-575l-138 -358h-270zM473 539h447l-218 608zM489 1739q0 90 61.5 151.5t156 61.5t157 -61.5t62.5 -151.5q0 -94 -61.5 -155.5t-158 -61.5t-157 61.5t-60.5 155.5zM608 1739q0 -45 28 -74t71 -29q45 0 71.5 29t26.5 74 t-26.5 72.5t-71.5 27.5q-43 0 -71 -28.5t-28 -71.5z" />
<glyph unicode="&#xc6;" horiz-adv-x="1961" d="M0 0l872 1446h988v-203h-578v-383h500v-205h-500v-446h678l-123 -209h-817v389h-506l-227 -389h-287zM625 580h395v675z" />
<glyph unicode="&#xc7;" horiz-adv-x="1366" d="M63 713q0 268 150 465q92 121 258 213t420 92q239 0 405 -70v-248q-57 37 -93 56.5t-115.5 41t-172.5 21.5q-244 0 -405.5 -153.5t-161.5 -399.5q0 -248 166 -408.5t447 -160.5q180 0 403 76l-137 -234q-154 -41 -324 -41l-35 -74q143 -43 144 -184q0 -104 -95.5 -172 t-271.5 -80v141q90 8 135 41t45 78q0 94 -127 99l74 157q-272 31 -450 178q-125 104 -192 252t-67 314z" />
<glyph unicode="&#xc8;" horiz-adv-x="1067" d="M121 0v1446h848v-205h-580v-385h500v-205h-500v-444h674l-119 -207h-823zM246 1749v211l491 -240v-184z" />
<glyph unicode="&#xc9;" horiz-adv-x="1067" d="M121 0v1446h848v-205h-580v-385h500v-205h-500v-444h674l-119 -207h-823zM367 1538v180l491 242v-211z" />
<glyph unicode="&#xca;" horiz-adv-x="1067" d="M121 0v1446h848v-205h-580v-385h500v-205h-500v-444h674l-119 -207h-823zM229 1534v166l308 207l311 -199v-176l-311 168z" />
<glyph unicode="&#xcb;" horiz-adv-x="1067" d="M121 0v1446h848v-205h-580v-385h500v-205h-500v-444h674l-119 -207h-823zM231 1698q0 51 35 89t88.5 38t89 -36t35.5 -91.5t-36.5 -91t-88 -35.5t-87.5 37t-36 90zM627 1698q0 51 34.5 89t88 38t90.5 -36t37 -91q0 -53 -38 -90t-89.5 -37t-87 37t-35.5 90z" />
<glyph unicode="&#xcc;" horiz-adv-x="512" d="M-37 1749v211l492 -240v-184zM121 0v1446h270v-1446h-270z" />
<glyph unicode="&#xcd;" horiz-adv-x="512" d="M57 1538v180l492 242v-211zM121 0v1446h270v-1446h-270z" />
<glyph unicode="&#xce;" horiz-adv-x="512" d="M-53 1534v166l307 207l311 -199v-176l-311 168zM121 0v1446h270v-1446h-270z" />
<glyph unicode="&#xcf;" horiz-adv-x="512" d="M-68 1698q0 51 35 89t88.5 38t89 -36t35.5 -91.5t-37 -91t-88 -35.5t-87 37t-36 90zM121 0v1446h270v-1446h-270zM328 1698q0 51 34.5 89t88 38t90.5 -36t37 -91q0 -53 -38 -90t-89.5 -37t-87 37t-35.5 90z" />
<glyph unicode="&#xd0;" horiz-adv-x="1449" d="M0 682v170h121v594h489q180 0 314 -43q164 -53 272.5 -169t150.5 -244t42 -267q-2 -147 -51.5 -281.5t-168 -249t-292.5 -161.5q-115 -31 -275 -31h-481v682h-121zM387 201h176q133 0 235.5 37.5t158 94t90 131.5t45 136.5t10.5 122.5q0 193 -85 312.5t-212 166.5 q-98 37 -262 37h-156v-387h363v-170h-363v-481z" />
<glyph unicode="&#xd1;" horiz-adv-x="1536" d="M121 0v1446h252l788 -897q-8 852 -8 897h262v-1446h-94l-942 1044q8 -1012 8 -1044h-266zM455 1579v170q78 96 184 96q51 0 147 -43q82 -37 142 -37q90 0 174 88v-172q-63 -96 -178 -96q-53 0 -160 41q-98 37 -133 37q-96 0 -176 -84z" />
<glyph unicode="&#xd2;" horiz-adv-x="1662" d="M63 719q0 317 210 540.5t558 223.5q342 0 556.5 -217.5t214.5 -536.5q0 -322 -208 -544t-554 -222q-352 0 -564.5 214t-212.5 542zM350 723q0 -236 133 -394.5t354.5 -158.5t349.5 166t128 385q0 246 -136.5 403.5t-344.5 157.5q-211 0 -347.5 -158.5t-136.5 -400.5z M553 1749v211l491 -240v-184z" />
<glyph unicode="&#xd3;" horiz-adv-x="1662" d="M63 719q0 317 210 540.5t558 223.5q342 0 556.5 -217.5t214.5 -536.5q0 -322 -208 -544t-554 -222q-352 0 -564.5 214t-212.5 542zM350 723q0 -236 133 -394.5t354.5 -158.5t349.5 166t128 385q0 246 -136.5 403.5t-344.5 157.5q-211 0 -347.5 -158.5t-136.5 -400.5z M627 1538v180l491 242v-211z" />
<glyph unicode="&#xd4;" horiz-adv-x="1662" d="M63 719q0 317 210 540.5t558 223.5q342 0 556.5 -217.5t214.5 -536.5q0 -322 -208 -544t-554 -222q-352 0 -564.5 214t-212.5 542zM350 723q0 -236 133 -394.5t354.5 -158.5t349.5 166t128 385q0 246 -136.5 403.5t-344.5 157.5q-211 0 -347.5 -158.5t-136.5 -400.5z M514 1534v166l307 207l312 -199v-176l-312 168z" />
<glyph unicode="&#xd5;" horiz-adv-x="1662" d="M63 719q0 317 210 540.5t558 223.5q342 0 556.5 -217.5t214.5 -536.5q0 -322 -208 -544t-554 -222q-352 0 -564.5 214t-212.5 542zM350 723q0 -236 133 -394.5t354.5 -158.5t349.5 166t128 385q0 246 -136.5 403.5t-344.5 157.5q-211 0 -347.5 -158.5t-136.5 -400.5z M504 1579v170q78 96 184 96q53 0 148 -43q84 -37 141 -37q90 0 174 88v-172q-63 -96 -178 -96q-53 0 -160 41q-98 37 -133 37q-96 0 -176 -84z" />
<glyph unicode="&#xd6;" horiz-adv-x="1662" d="M63 719q0 317 210 540.5t558 223.5q342 0 556.5 -217.5t214.5 -536.5q0 -322 -208 -544t-554 -222q-352 0 -564.5 214t-212.5 542zM350 723q0 -236 133 -394.5t354.5 -158.5t349.5 166t128 385q0 246 -136.5 403.5t-344.5 157.5q-211 0 -347.5 -158.5t-136.5 -400.5z M518 1698q0 51 35 89t88 38t89 -36t36 -91.5t-37 -91t-88 -35.5t-87 37t-36 90zM913 1698q0 51 35 89t88.5 38t90 -36t36.5 -91q0 -53 -38 -90t-89 -37t-87 37t-36 90z" />
<glyph unicode="&#xd7;" horiz-adv-x="1482" d="M256 924l180 188l312 -301l292 303l162 -153l-293 -304l318 -305l-180 -190l-316 305l-293 -301l-162 153l293 302z" />
<glyph unicode="&#xd8;" horiz-adv-x="1662" d="M14 61l201 197q-43 59 -68 104q-84 162 -84 357q0 252 134 444q35 51 83 99.5t124.5 101.5t188.5 86t241 33q297 0 485 -160l192 186l123 -129l-188 -184q63 -76 101 -182.5t46.5 -170t8.5 -116.5q0 -270 -156 -473q-223 -291 -612 -291q-279 0 -494 166l-203 -199z M344 725q0 -146 68 -279l737 715q-14 18 -40 40t-105.5 53.5t-172.5 31.5q-88 0 -164.5 -29.5t-127 -76.5t-78 -84t-47.5 -74q-70 -133 -70 -297zM512 293q125 -125 326 -125q166 0 284 98q82 68 131.5 171.5t58.5 166t9 115.5q0 154 -72 291z" />
<glyph unicode="&#xd9;" horiz-adv-x="1492" d="M115 518v928h270v-893q0 -389 365 -389q360 0 360 399v883h268v-918q0 -129 -35.5 -230t-99 -159.5t-128 -96.5t-145.5 -53.5t-128 -20.5t-97 -5q-96 0 -182 16.5t-170 56.5t-144.5 101.5t-97 158.5t-36.5 222zM440 1749v211l492 -240v-184z" />
<glyph unicode="&#xda;" horiz-adv-x="1492" d="M115 518v928h270v-893q0 -389 365 -389q360 0 360 399v883h268v-918q0 -129 -35.5 -230t-99 -159.5t-128 -96.5t-145.5 -53.5t-128 -20.5t-97 -5q-96 0 -182 16.5t-170 56.5t-144.5 101.5t-97 158.5t-36.5 222zM573 1538v180l492 242v-211z" />
<glyph unicode="&#xdb;" horiz-adv-x="1492" d="M115 518v928h270v-893q0 -389 365 -389q360 0 360 399v883h268v-918q0 -129 -35.5 -230t-99 -159.5t-128 -96.5t-145.5 -53.5t-128 -20.5t-97 -5q-96 0 -182 16.5t-170 56.5t-144.5 101.5t-97 158.5t-36.5 222zM436 1534v166l307 207l312 -199v-176l-312 168z" />
<glyph unicode="&#xdc;" horiz-adv-x="1492" d="M115 518v928h270v-893q0 -389 365 -389q360 0 360 399v883h268v-918q0 -129 -35.5 -230t-99 -159.5t-128 -96.5t-145.5 -53.5t-128 -20.5t-97 -5q-96 0 -182 16.5t-170 56.5t-144.5 101.5t-97 158.5t-36.5 222zM432 1698q0 51 35 89t88 38t89 -36t36 -91.5t-37 -91 t-88 -35.5t-87 37t-36 90zM827 1698q0 51 35 89t88.5 38t90 -36t36.5 -91q0 -53 -38 -90t-89 -37t-87 37t-36 90z" />
<glyph unicode="&#xdd;" horiz-adv-x="1323" d="M0 1446h297l375 -653l375 653h276l-524 -899v-547h-273v547zM543 1538v180l491 242v-211z" />
<glyph unicode="&#xde;" horiz-adv-x="1110" d="M121 0v1446h270v-283h199q92 0 151.5 -6t144.5 -47t144 -121q78 -104 80 -237q0 -141 -84 -248q-145 -190 -512 -191h-123v-313h-270zM391 342l117 164h27q150 0 222 66.5t72 166.5q0 121 -71.5 173.5t-204.5 52.5h-162v-623z" />
<glyph unicode="&#xdf;" d="M115 0v920q0 152 21.5 244.5t96.5 170.5q131 135 367 135q166 0 280.5 -88t114.5 -245q0 -221 -229 -293q49 -6 100.5 -27.5t107.5 -65.5t91 -127t35 -192q0 -201 -114 -328t-310 -127q-92 0 -209 41v201q90 -57 166 -57q74 0 124 35.5t68.5 90t24.5 87.5t6 57 q0 76 -26.5 133.5t-64.5 89t-89 51t-90 25.5t-78 6h-57l137 189q61 8 114.5 53t53.5 135q0 88 -53.5 133t-122.5 45q-221 0 -222 -319v-973h-243z" />
<glyph unicode="&#xe0;" horiz-adv-x="980" d="M41 281q0 33 6 68.5t35 87.5t75 90t138 67t213 29q18 0 38.5 -1t47.5 -3.5t41 -2.5v19q0 45 -5 74.5t-22.5 70.5t-63.5 62.5t-118 21.5q-119 1 -305 -71l125 211q131 33 250 32q373 0 372 -350v-463q0 -172 17 -223h-234q-14 31 -16 150l-115 -160q-61 -14 -131 -15 q-33 0 -67.5 4.5t-88 22.5t-93.5 49t-69.5 90.5t-29.5 139.5zM229 1403v225l420 -317v-197zM285 289q0 -57 38.5 -102.5t133.5 -45.5q84 0 178 49v267q-33 4 -90 4q-260 0 -260 -172z" />
<glyph unicode="&#xe1;" horiz-adv-x="980" d="M41 281q0 33 6 68.5t35 87.5t75 90t138 67t213 29q18 0 38.5 -1t47.5 -3.5t41 -2.5v19q0 45 -5 74.5t-22.5 70.5t-63.5 62.5t-118 21.5q-119 1 -305 -71l125 211q131 33 250 32q373 0 372 -350v-463q0 -172 17 -223h-234q-14 31 -16 150l-115 -160q-61 -14 -131 -15 q-33 0 -67.5 4.5t-88 22.5t-93.5 49t-69.5 90.5t-29.5 139.5zM285 289q0 -57 38.5 -102.5t133.5 -45.5q84 0 178 49v267q-33 4 -90 4q-260 0 -260 -172zM381 1116v195l420 319v-225z" />
<glyph unicode="&#xe2;" horiz-adv-x="980" d="M41 281q0 33 6 68.5t35 87.5t75 90t138 67t213 29q18 0 38.5 -1t47.5 -3.5t41 -2.5v19q0 45 -5 74.5t-22.5 70.5t-63.5 62.5t-118 21.5q-119 1 -305 -71l125 211q131 33 250 32q373 0 372 -350v-463q0 -172 17 -223h-234q-14 31 -16 150l-115 -160q-61 -14 -131 -15 q-33 0 -67.5 4.5t-88 22.5t-93.5 49t-69.5 90.5t-29.5 139.5zM221 1124v185l285 266l293 -260v-191l-293 232zM285 289q0 -57 38.5 -102.5t133.5 -45.5q84 0 178 49v267q-33 4 -90 4q-260 0 -260 -172z" />
<glyph unicode="&#xe3;" horiz-adv-x="980" d="M41 281q0 33 6 68.5t35 87.5t75 90t138 67t213 29q18 0 38.5 -1t47.5 -3.5t41 -2.5v19q0 45 -5 74.5t-22.5 70.5t-63.5 62.5t-118 21.5q-119 1 -305 -71l125 211q131 33 250 32q373 0 372 -350v-463q0 -172 17 -223h-234q-14 31 -16 150l-115 -160q-61 -14 -131 -15 q-33 0 -67.5 4.5t-88 22.5t-93.5 49t-69.5 90.5t-29.5 139.5zM207 1186v170q72 98 174 98q43 0 137 -45q80 -35 131 -35q84 0 164 88v-174q-63 -96 -166 -96q-43 0 -151 41q-82 37 -125 37q-92 0 -164 -84zM285 289q0 -57 38.5 -102.5t133.5 -45.5q84 0 178 49v267 q-33 4 -90 4q-260 0 -260 -172z" />
<glyph unicode="&#xe4;" horiz-adv-x="980" d="M41 281q0 33 6 68.5t35 87.5t75 90t138 67t213 29q18 0 38.5 -1t47.5 -3.5t41 -2.5v19q0 45 -5 74.5t-22.5 70.5t-63.5 62.5t-118 21.5q-119 1 -305 -71l125 211q131 33 250 32q373 0 372 -350v-463q0 -172 17 -223h-234q-14 31 -16 150l-115 -160q-61 -14 -131 -15 q-33 0 -67.5 4.5t-88 22.5t-93.5 49t-69.5 90.5t-29.5 139.5zM190 1333q0 51 34 88t87.5 37t90 -34.5t36.5 -90.5q0 -53 -38 -88t-89 -35t-86 36t-35 87zM285 289q0 -57 38.5 -102.5t133.5 -45.5q84 0 178 49v267q-33 4 -90 4q-260 0 -260 -172zM551 1333q0 51 35 88t88 37 t89 -34.5t36 -90.5q0 -53 -37 -88t-88 -35t-87 36t-36 87z" />
<glyph unicode="&#xe5;" horiz-adv-x="980" d="M41 281q0 33 6 68.5t35 87.5t75 90t138 67t213 29q18 0 38.5 -1t47.5 -3.5t41 -2.5v19q0 45 -5 74.5t-22.5 70.5t-63.5 62.5t-118 21.5q-119 1 -305 -71l125 211q131 33 250 32q373 0 372 -350v-463q0 -172 17 -223h-234q-14 31 -16 150l-115 -160q-61 -14 -131 -15 q-33 0 -67.5 4.5t-88 22.5t-93.5 49t-69.5 90.5t-29.5 139.5zM272 1356q0 90 62.5 151.5t155 61.5t155 -61.5t62.5 -151.5q0 -94 -61.5 -154.5t-156 -60.5t-156 61.5t-61.5 153.5zM285 289q0 -57 38.5 -102.5t133.5 -45.5q84 0 178 49v267q-33 4 -90 4q-260 0 -260 -172z M391 1356q0 -45 27.5 -74t70.5 -29t71 29t28 74t-28 72.5t-71 27.5t-70.5 -28.5t-27.5 -71.5z" />
<glyph unicode="&#xe6;" horiz-adv-x="1622" d="M41 295q0 158 126 253t384 95h92q0 43 -5 71.5t-24.5 68.5t-66.5 60.5t-121 20.5q-115 0 -297 -69l121 206q139 35 260 35q102 0 184 -35.5t115 -105.5q123 143 332 143q37 0 80 -6t113.5 -36.5t123.5 -82t93 -154t40 -239.5v-28h-700q4 -145 91 -245t275 -100 q143 0 304 66l-119 -205q-104 -33 -260 -33q-293 0 -441 189l-120 -162q-84 -27 -181 -27q-193 0 -296 88.5t-103 231.5zM285 297q0 -82 59 -119t145 -37q127 0 230 62q-64 88 -74 289q-219 -8 -287 -58q-74 -53 -73 -137zM895 643h451q-10 125 -73 176t-143 51 q-104 0 -163.5 -72.5t-71.5 -154.5z" />
<glyph unicode="&#xe7;" horiz-adv-x="894" d="M51 500q0 244 164 397q152 141 389 141q135 0 270 -55v-213q-117 88 -245 88q-100 0 -170 -43t-98.5 -107.5t-40 -113.5t-11.5 -88q0 -160 97.5 -259.5t255.5 -99.5q86 0 251 54l-116 -193q-111 -29 -187 -33l-37 -79q138 -40 138 -177q0 -98 -91.5 -164.5t-252.5 -76.5 v139q80 6 121.5 38t41.5 73q0 43 -31.5 67.5t-84.5 26.5l75 162q-205 29 -321.5 173t-116.5 343z" />
<glyph unicode="&#xe8;" horiz-adv-x="1024" d="M51 504q0 119 35 217q12 35 31.5 70.5t57.5 82t85 80t120 58t159 24.5q248 0 366 -176q86 -128 90 -368h-686q0 -41 8.5 -82t32 -90.5t61.5 -85t105.5 -60t155.5 -24.5q145 0 289 61l-117 -203q-115 -33 -242 -33q-266 0 -409 146q-141 141 -142 383zM287 1403v225 l420 -317v-197zM313 643h437q-2 106 -59.5 168.5t-149.5 62.5q-61 0 -107.5 -28.5t-70 -72.5t-35 -73.5t-15.5 -56.5z" />
<glyph unicode="&#xe9;" horiz-adv-x="1024" d="M51 504q0 119 35 217q12 35 31.5 70.5t57.5 82t85 80t120 58t159 24.5q248 0 366 -176q86 -128 90 -368h-686q0 -41 8.5 -82t32 -90.5t61.5 -85t105.5 -60t155.5 -24.5q145 0 289 61l-117 -203q-115 -33 -242 -33q-266 0 -409 146q-141 141 -142 383zM313 643h437 q-2 106 -59.5 168.5t-149.5 62.5q-61 0 -107.5 -28.5t-70 -72.5t-35 -73.5t-15.5 -56.5zM406 1116v195l419 319v-225z" />
<glyph unicode="&#xea;" horiz-adv-x="1024" d="M51 504q0 119 35 217q12 35 31.5 70.5t57.5 82t85 80t120 58t159 24.5q248 0 366 -176q86 -128 90 -368h-686q0 -41 8.5 -82t32 -90.5t61.5 -85t105.5 -60t155.5 -24.5q145 0 289 61l-117 -203q-115 -33 -242 -33q-266 0 -409 146q-141 141 -142 383zM240 1124v185 l284 266l293 -260v-191l-293 232zM313 643h437q-2 106 -59.5 168.5t-149.5 62.5q-61 0 -107.5 -28.5t-70 -72.5t-35 -73.5t-15.5 -56.5z" />
<glyph unicode="&#xeb;" horiz-adv-x="1024" d="M51 504q0 119 35 217q12 35 31.5 70.5t57.5 82t85 80t120 58t159 24.5q248 0 366 -176q86 -128 90 -368h-686q0 -41 8.5 -82t32 -90.5t61.5 -85t105.5 -60t155.5 -24.5q145 0 289 61l-117 -203q-115 -33 -242 -33q-266 0 -409 146q-141 141 -142 383zM229 1333 q0 51 34 88t87 37t90 -34.5t37 -90.5q0 -53 -38 -88t-89 -35t-86 36t-35 87zM313 643h437q-2 106 -59.5 168.5t-149.5 62.5q-61 0 -107.5 -28.5t-70 -72.5t-35 -73.5t-15.5 -56.5zM590 1333q0 51 34.5 88t88 37t89.5 -34.5t36 -90.5q0 -53 -37 -88t-88 -35t-87 36t-36 87z " />
<glyph unicode="&#xec;" horiz-adv-x="468" d="M-27 1403v225l420 -317v-197zM115 0v1012h239v-1012h-239z" />
<glyph unicode="&#xed;" horiz-adv-x="468" d="M80 1116v195l420 319v-225zM115 0v1012h239v-1012h-239z" />
<glyph unicode="&#xee;" horiz-adv-x="468" d="M-51 1124v185l284 266l293 -260v-191l-293 232zM115 0v1012h239v-1012h-239z" />
<glyph unicode="&#xef;" horiz-adv-x="468" d="M-68 1333q0 51 34 88t87 37t90 -34.5t37 -90.5q0 -53 -38 -88t-89 -35t-86 36t-35 87zM115 0v1012h239v-1012h-239zM293 1333q0 51 34.5 88t88 37t89.5 -34.5t36 -90.5q0 -53 -37 -88t-88 -35t-87 36t-36 87z" />
<glyph unicode="&#xf0;" horiz-adv-x="1110" d="M59 512q0 35 5.5 75t23.5 110.5t67.5 141t120.5 122.5q106 76 246 75q96 0 183 -43q-29 78 -99 185l-282 -97l-58 123l248 82q-33 41 -123 100l219 95q70 -43 140 -117l161 53l60 -119l-131 -43l10 -16q213 -307 213 -680q0 -166 -47 -285.5t-125 -181t-162 -89.5 t-178 -28q-238 0 -365 152t-127 385zM313 522q0 -231 115 -323q59 -49 137 -49q113 0 178.5 96t65.5 262q0 150 -62.5 253t-189.5 103q-111 0 -177.5 -90t-66.5 -252z" />
<glyph unicode="&#xf1;" d="M115 0v1012h239v-191l131 183q92 33 205 32q348 0 348 -379v-657h-239v588q0 39 -2 67.5t-14.5 68.5t-35 64.5t-64.5 43t-101 18.5q-113 0 -228 -76v-774h-239zM279 1186v170q72 98 174 98q43 0 137 -45q80 -35 131 -35q84 0 164 88v-174q-63 -96 -166 -96q-43 0 -152 41 q-82 37 -125 37q-92 0 -163 -84z" />
<glyph unicode="&#xf2;" horiz-adv-x="1110" d="M51 495.5q0 233.5 140.5 387t371.5 153.5q229 0 362.5 -146.5t133.5 -377.5q0 -240 -136.5 -388.5t-373.5 -148.5q-231 0 -364.5 143.5t-133.5 377zM307 504q0 -145 58.5 -249.5t187.5 -104.5t190.5 108.5t61.5 247.5q0 147 -59.5 252.5t-192.5 105.5q-90 0 -148.5 -60.5 t-78 -136t-19.5 -163.5zM315 1403v225l420 -317v-197z" />
<glyph unicode="&#xf3;" horiz-adv-x="1110" d="M51 495.5q0 233.5 140.5 387t371.5 153.5q229 0 362.5 -146.5t133.5 -377.5q0 -240 -136.5 -388.5t-373.5 -148.5q-231 0 -364.5 143.5t-133.5 377zM307 504q0 -145 58.5 -249.5t187.5 -104.5t190.5 108.5t61.5 247.5q0 147 -59.5 252.5t-192.5 105.5q-90 0 -148.5 -60.5 t-78 -136t-19.5 -163.5zM401 1116v195l420 319v-225z" />
<glyph unicode="&#xf4;" horiz-adv-x="1110" d="M51 495.5q0 233.5 140.5 387t371.5 153.5q229 0 362.5 -146.5t133.5 -377.5q0 -240 -136.5 -388.5t-373.5 -148.5q-231 0 -364.5 143.5t-133.5 377zM274 1124v185l285 266l293 -260v-191l-293 232zM307 504q0 -145 58.5 -249.5t187.5 -104.5t190.5 108.5t61.5 247.5 q0 147 -59.5 252.5t-192.5 105.5q-90 0 -148.5 -60.5t-78 -136t-19.5 -163.5z" />
<glyph unicode="&#xf5;" horiz-adv-x="1110" d="M51 495.5q0 233.5 140.5 387t371.5 153.5q229 0 362.5 -146.5t133.5 -377.5q0 -240 -136.5 -388.5t-373.5 -148.5q-231 0 -364.5 143.5t-133.5 377zM252 1186v170q72 98 174 98q43 0 137 -45q80 -35 131 -35q84 0 164 88v-174q-63 -96 -166 -96q-43 0 -151 41 q-82 37 -125 37q-92 0 -164 -84zM307 504q0 -145 58.5 -249.5t187.5 -104.5t190.5 108.5t61.5 247.5q0 147 -59.5 252.5t-192.5 105.5q-90 0 -148.5 -60.5t-78 -136t-19.5 -163.5z" />
<glyph unicode="&#xf6;" horiz-adv-x="1110" d="M51 495.5q0 233.5 140.5 387t371.5 153.5q229 0 362.5 -146.5t133.5 -377.5q0 -240 -136.5 -388.5t-373.5 -148.5q-231 0 -364.5 143.5t-133.5 377zM250 1333q0 51 33.5 88t87 37t90.5 -34.5t37 -90.5q0 -53 -38 -88t-89.5 -35t-86 36t-34.5 87zM307 504 q0 -145 58.5 -249.5t187.5 -104.5t190.5 108.5t61.5 247.5q0 147 -59.5 252.5t-192.5 105.5q-90 0 -148.5 -60.5t-78 -136t-19.5 -163.5zM610 1333q0 51 35 88t88 37t89 -34.5t36 -90.5q0 -53 -37 -88t-88 -35t-87 36t-36 87z" />
<glyph unicode="&#xf7;" horiz-adv-x="1497" d="M170 526v226h1157v-226h-1157zM596 264q0 66 43 110t106 44q66 0 110 -45t44 -108.5t-45 -107.5t-108.5 -44t-106.5 44t-43 107zM596 1011.5q0 65.5 43 109.5t109 44q63 0 107 -45t44 -108q0 -66 -44 -109t-107.5 -43t-107.5 43t-44 108.5z" />
<glyph unicode="&#xf8;" horiz-adv-x="1110" d="M4 51l129 133q-82 145 -82 308q0 94 27.5 185t85 174t162 134t239.5 51q184 0 299 -98l135 137l111 -110l-137 -142q86 -115 86 -311q0 -236 -134 -386.5t-374 -150.5q-199 0 -305 95l-131 -131zM299 520q0 -73 16 -151l410 428q-66 74 -166 73q-135 0 -197.5 -104 t-62.5 -246zM387 217q51 -76 166 -76q86 0 144.5 47.5t80 119t28.5 115.5t7 79q0 59 -20 141z" />
<glyph unicode="&#xf9;" d="M115 340v672h241v-590q0 -147 47.5 -203.5t157.5 -56.5q125 0 238 78v772h239v-1012h-239v193l-129 -185q-102 -33 -203 -33q-156 0 -250 84q-61 55 -81.5 117t-20.5 164zM307 1403v225l420 -317v-197z" />
<glyph unicode="&#xfa;" d="M115 340v672h241v-590q0 -147 47.5 -203.5t157.5 -56.5q125 0 238 78v772h239v-1012h-239v193l-129 -185q-102 -33 -203 -33q-156 0 -250 84q-61 55 -81.5 117t-20.5 164zM461 1116v195l420 319v-225z" />
<glyph unicode="&#xfb;" d="M115 340v672h241v-590q0 -147 47.5 -203.5t157.5 -56.5q125 0 238 78v772h239v-1012h-239v193l-129 -185q-102 -33 -203 -33q-156 0 -250 84q-61 55 -81.5 117t-20.5 164zM289 1124v185l284 266l293 -260v-191l-293 232z" />
<glyph unicode="&#xfc;" d="M115 340v672h241v-590q0 -147 47.5 -203.5t157.5 -56.5q125 0 238 78v772h239v-1012h-239v193l-129 -185q-102 -33 -203 -33q-156 0 -250 84q-61 55 -81.5 117t-20.5 164zM270 1333q0 51 34 88t87 37t90 -34.5t37 -90.5q0 -53 -38 -88t-89 -35t-86 36t-35 87zM631 1333 q0 51 34.5 88t88 37t89.5 -34.5t36 -90.5q0 -53 -37 -88t-88.5 -35t-87 36t-35.5 87z" />
<glyph unicode="&#xfd;" horiz-adv-x="1024" d="M0 1012h256l268 -768l254 768h246l-395 -1030q-78 -203 -189.5 -295.5t-306.5 -92.5q-49 0 -113 11l62 176q45 -4 70 -4q160 0 239 227zM408 1116v195l419 319v-225z" />
<glyph unicode="&#xfe;" d="M115 -428v1874h241v-604l117 170q78 25 158 24q227 0 348 -144t121 -362q0 -231 -128 -393t-364 -162q-125 0 -252 66v-469h-241zM356 221q102 -61 199 -61q119 0 206 88t87 266q0 180 -86 262t-205 82q-78 0 -201 -49v-588z" />
<glyph unicode="&#xff;" horiz-adv-x="1024" d="M0 1012h256l268 -768l254 768h246l-395 -1030q-78 -203 -189.5 -295.5t-306.5 -92.5q-49 0 -113 11l62 176q45 -4 70 -4q160 0 239 227zM209 1333q0 51 33.5 88t87 37t90.5 -34.5t37 -90.5q0 -53 -38 -88t-89 -35t-86 36t-35 87zM569 1333q0 51 35 88t88 37t89 -34.5 t36 -90.5q0 -53 -37 -88t-88 -35t-87 36t-36 87z" />
<glyph unicode="&#x152;" horiz-adv-x="2048" d="M63 709q0 55 8.5 114.5t33 147.5t85 178t148.5 162q123 100 283 141q98 25 221 25q113 0 256 -31h848v-203h-582v-383h502v-205h-502v-448h682l-125 -207h-844q-119 -31 -239 -31q-342 0 -558.5 204t-216.5 536zM352 719q0 -143 50.5 -264t168 -204t285.5 -83 q131 0 242 47v1018q-127 49 -242 49q-141 0 -238.5 -59.5t-150.5 -126.5q-115 -152 -115 -377z" />
<glyph unicode="&#x153;" horiz-adv-x="1792" d="M51 494q0 254 145.5 398t368.5 144q256 0 369 -172q129 172 369 172q260 0 376 -188q78 -123 82 -359h-694q25 -340 365 -339q143 0 299 65l-119 -205q-127 -35 -244 -35q-170 0 -279.5 53.5t-154.5 127.5q-12 -23 -34.5 -46.5t-68 -57.5t-121 -55.5t-169.5 -21.5 q-37 0 -76 4.5t-120 32t-140.5 77.5t-106.5 155.5t-47 249.5zM303 502q0 -195 94 -289q66 -63 160 -63q82 0 137.5 40.5t78 105t30.5 113t8 97.5q0 139 -51 233q-63 123 -203 123q-41 0 -80 -14t-81 -50t-67.5 -113t-25.5 -183zM1071 641h445q-6 119 -65.5 175t-147.5 56 q-177 0 -232 -231z" />
<glyph unicode="&#x178;" horiz-adv-x="1323" d="M0 1446h297l375 -653l375 653h276l-524 -899v-547h-273v547zM356 1698q0 51 35 89t88 38t89 -36t36 -91.5t-37 -91t-88 -35.5t-87 37t-36 90zM752 1698q0 51 34.5 89t88 38t90 -36t36.5 -91q0 -53 -37.5 -90t-89 -37t-87 37t-35.5 90z" />
<glyph unicode="&#x2c6;" horiz-adv-x="598" d="M10 1124v185l285 266l293 -260v-191l-293 232z" />
<glyph unicode="&#x2dc;" horiz-adv-x="598" d="M-4 1186v170q72 98 174 98q43 0 137 -45q80 -35 131 -35q84 0 164 88v-174q-63 -96 -166 -96q-43 0 -151 41q-82 37 -125 37q-92 0 -164 -84z" />
<glyph unicode="&#x2000;" horiz-adv-x="980" />
<glyph unicode="&#x2001;" horiz-adv-x="1960" />
<glyph unicode="&#x2002;" horiz-adv-x="980" />
<glyph unicode="&#x2003;" horiz-adv-x="1960" />
<glyph unicode="&#x2004;" horiz-adv-x="653" />
<glyph unicode="&#x2005;" horiz-adv-x="490" />
<glyph unicode="&#x2006;" horiz-adv-x="326" />
<glyph unicode="&#x2007;" horiz-adv-x="326" />
<glyph unicode="&#x2008;" horiz-adv-x="245" />
<glyph unicode="&#x2009;" horiz-adv-x="392" />
<glyph unicode="&#x200a;" horiz-adv-x="108" />
<glyph unicode="&#x2010;" horiz-adv-x="694" d="M8 446l125 179h555l-125 -179h-555z" />
<glyph unicode="&#x2011;" horiz-adv-x="694" d="M8 446l125 179h555l-125 -179h-555z" />
<glyph unicode="&#x2012;" horiz-adv-x="694" d="M8 446l125 179h555l-125 -179h-555z" />
<glyph unicode="&#x2013;" horiz-adv-x="1165" d="M8 446l125 179h1026l-127 -179h-1024z" />
<glyph unicode="&#x2014;" horiz-adv-x="1591" d="M8 446l125 179h1450l-127 -179h-1448z" />
<glyph unicode="&#x2018;" horiz-adv-x="425" d="M27 1014l237 432h137l-168 -432h-206z" />
<glyph unicode="&#x2019;" horiz-adv-x="425" d="M25 1014l168 432h206l-237 -432h-137z" />
<glyph unicode="&#x201a;" horiz-adv-x="425" d="M25 -207l168 434h206l-237 -434h-137z" />
<glyph unicode="&#x201c;" horiz-adv-x="768" d="M27 1014l237 432h137l-168 -432h-206zM369 1014l237 432h137l-168 -432h-206z" />
<glyph unicode="&#x201d;" horiz-adv-x="768" d="M25 1014l168 432h206l-237 -432h-137zM367 1014l165 432h209l-237 -432h-137z" />
<glyph unicode="&#x201e;" horiz-adv-x="768" d="M8 -207l166 434h209l-238 -434h-137zM348 -207l168 434h207l-236 -434h-139z" />
<glyph unicode="&#x2022;" horiz-adv-x="681" d="M68 721q0 113 79.5 192.5t194.5 79.5t192.5 -76.5t77.5 -189.5q0 -121 -75.5 -198.5t-192.5 -77.5q-115 0 -195.5 78.5t-80.5 191.5z" />
<glyph unicode="&#x2026;" horiz-adv-x="2048" d="M211 108.5q0 55.5 37 93.5t92 38q53 0 91 -38t38 -93.5t-37 -93.5t-92 -38t-92 38t-37 93.5zM895 108.5q0 55.5 37 93.5t92 38t93 -38t38 -93.5t-38 -93.5t-93 -38q-53 0 -91 38t-38 93.5zM1577 108.5q0 55.5 38 93.5t91 38q55 0 93 -38t38 -93.5t-38 -93.5t-93 -38 q-53 0 -91 38t-38 93.5z" />
<glyph unicode="&#x202f;" horiz-adv-x="392" />
<glyph unicode="&#x2039;" horiz-adv-x="512" d="M39 537l221 321h215l-221 -321l223 -324h-217z" />
<glyph unicode="&#x203a;" horiz-adv-x="512" d="M37 213l221 322l-221 323h215l221 -323l-221 -322h-215z" />
<glyph unicode="&#x205f;" horiz-adv-x="490" />
<glyph unicode="&#x20ac;" horiz-adv-x="1318" d="M125 483v148h131v59q0 35 4 88h-135v148h154q57 244 217.5 370.5t404.5 126.5q213 1 352 -73v-226q-143 106 -329 107q-303 0 -383 -305h479v-148h-508q-2 -31 -2 -76q0 -39 4 -71h506v-148h-485q66 -319 432 -319q174 0 344 80l-101 -224q-135 -45 -280 -45 q-545 0 -656 508h-149z" />
<glyph unicode="&#x2122;" horiz-adv-x="1513" d="M55 1317v129h543v-129h-190v-551h-162v551h-191zM629 768l65 678h191l135 -350l137 350h176l76 -678h-154l-47 463l-188 -465h-14l-187 469l-39 -467h-151z" />
<glyph unicode="&#xe000;" horiz-adv-x="1013" d="M0 0v1014h1014v-1014h-1014z" />
<glyph unicode="&#xfb01;" horiz-adv-x="1067" d="M20 840l107 172h25v108q0 63 13 119.5t47 113t104.5 89.5t172.5 33q61 0 138 -19v-184q-53 23 -95 22q-88 0 -115.5 -50t-27.5 -154v-78h197v-172h-197v-840h-237v840h-132zM705 1351.5q0 53.5 37.5 88.5t88.5 35q53 0 91.5 -35t38.5 -88q0 -55 -38 -89t-92 -34 q-51 0 -88.5 34.5t-37.5 88zM713 0v1012h239v-1012h-239z" />
<glyph unicode="&#xfb02;" horiz-adv-x="1067" d="M20 840l107 172h25v108q0 63 13 119.5t47 113t104.5 89.5t172.5 33q61 0 138 -19v-184q-53 23 -95 22q-88 0 -115.5 -50t-27.5 -154v-78h197v-172h-197v-840h-237v840h-132zM713 0v1446h239v-1446h-239z" />
</font>
</defs>
</svg>
